Присоединяйтесь к нам в Telegram!, здесь всегда актуальный адрес сайта, оперативная поддержка и многое другое!!

>

5.9

iTunes

7.4

iTunes

9.4

1 сезон

1

7.4

2 сезон

7.2

iTunes

7.3

1 сезон

13

6.1

iTunes

8.3

GOG

30

ULTIMATE

pack

9.9

Лицензия

ВАЖНО

ИГРА 18+

pack

7.3

RePack

MK11

7.7

RePack

jed

7.8

RePack

fifa19

8.5

RePack

RDR2

RePack

NEED FOR SPEED™ PAYBACK

5 сезон

9 сезон

Бесстыжие 9 сезон

Все сериалы

все сериалы на PB.wtf

RePack

FAR CRY 5

Anonymous, добрый день, мы катастрофически не успеваем собрать деньги на оплату серверов, помогите нам пожалуйста 5,10,15р., для нас важна любая помощь . В качестве благодарности мы отключим Вам всю рекламу на сайте (укажите свой ник в строку Ваше имя)!

×
  
Magnet ссылка

Они возвращаются / Ellos Volvieron [2015 г., триллер, HDRip, Любительский одноголосый "Васька Куролесов"] piratbit.org

Они возвращаются через торрент piratbit.org

Размер: 1.43 GB | Добавлен: 6 лет 10 мес. назад | Торрент скачан:309 раз
Смотреть онлайн Они возвращаются | Скачать    Ребята, помогите собрать деньги на оплату серверов!!!

11-01-2015 18:20 Они возвращаются Скачать торрент  

Они возвращаются / Ellos Volvieron
Год выпуска: 2015
Страна: Аргентина / Noel Films
Жанр: триллер
Продолжительность: 01:40:20
Перевод: Любительский одноголосый (Васька Куролесов)
  • Режиссер:Иван Ноэль

    В ролях: Камила Круз, Ромина Пинто, Хорхе Бут, Едми Аран, Лауро Верон

    Описание: Возвращение троих пропавших детей порождает череду насилия в их маленьком городке...

    Качество: HDRip
    Формат: AVI
    Видео кодек: XviD
    Аудио кодек: AC3
    Видео: 720x304 (2.37:1), 24 fps, XviD build 50 ~1844 kbps avg, 0.35 bit/pixel
    Аудио: 48 kHz, AC3 Dolby Digital, 2/0 (L,R) ch, ~192 kbps
    скриншот   скриншот   скриншот   скриншот   скриншот   скриншот  

    Общее
    Полное имя : F:\кино\Ellos.Volvieron.2015.HDRip.avi
    Формат : AVI
    Формат/Информация : Audio Video Interleave
    Размер файла : 1,43 Гбайт
    Продолжительность : 1 ч. 40 м.
    Общий поток : 2046 Кбит/сек
    Программа кодирования : VirtualDubMod 1.5.10.3 | www.virtualdub-fr.org || (build 2550/release)
    Библиотека кодирования : VirtualDubMod build 2550/release

    Видео
    Идентификатор : 0
    Формат : MPEG-4 Visual
    Профиль формата : Advanced Simple@L5
    Параметр BVOP формата : 2
    Параметр QPel формата : Нет
    Параметр GMC формата : Без точки перехода
    Параметр матрицы формата : Default (H.263)
    Идентификатор кодека : XVID
    Идентификатор кодека/Подсказка : XviD
    Продолжительность : 1 ч. 40 м.
    Битрейт : 1844 Кбит/сек
    Ширина : 720 пикселей
    Высота : 304 пикселя
    Соотношение сторон : 2,35:1
    Частота кадров : 24,000 кадра/сек
    Цветовое пространство : YUV
    Субдискретизация насыщенности : 4:2:0
    Битовая глубина : 8 бит
    Тип развёртки : Прогрессивная
    Метод сжатия : С потерями
    Бит/(Пиксели*Кадры) : 0.351
    Размер потока : 1,29 Гбайт (90%)
    Библиотека кодирования : XviD 1.2.1 (UTC 2008-12-04)

    Аудио
    Идентификатор : 1
    Формат : AC-3
    Формат/Информация : Audio Coding 3
    Расширение режима : CM (complete main)
    Параметр Endianness формата : Big
    Идентификатор кодека : 2000
    Продолжительность : 1 ч. 40 м.
    Вид битрейта : Постоянный
    Битрейт : 192 Кбит/сек
    Каналы : 2 канала
    Расположение каналов : Front: L R
    Частота : 48,0 КГц
    Битовая глубина : 16 бит
    Метод сжатия : С потерями
    Размер потока : 138 Мбайт (9%)
    Выравнивание : Разделение по промежуткам
    Продолжительность промежутка : 42 мс. (1,00 видеокадр)
    Время предзагрузки промежутка : 500 мс.

    piratbit.org



  • Скачать Они возвращаются через торрент https://pic1.kartinco.top/images/81/f6qa7.jpg Скачать, смотреть онлайн Они возвращаются бесплантно в хорошем качестве Описание: Возвращение троих пропавших детей порождает череду насилия в их маленьком ... 8.7 10 16
    Торрент: Зарегистрирован [2015-01-11 18:20] · скачан: 309 раз
    Статус: T временная
    Размер: 1.43 GB
    Как cкачать? Как скачать Они возвращаются через торрент | UTorrent

    28-11-2019 20:33  

    Отключить всю рекламу на сайте

      Дорогой пользователь! Огромная просьба, поблагодарите релизера, оцените раздачу и оставьте свои комментарий, если Вы скачали Они возвращаются через торрент бесплатно!
      Комментировать посты могут только пользователи прошедшие не сложную регистрацию
      Показать сообщения:    

      Они возвращаются через торрент
      Скачать бесплатно Они возвращаются
      Они возвращаются скачать торрент
      Они возвращаются смотреть онлайн
      Cкачать фильм Они возвращаются бесплатно
      Они возвращаются скачать торрент в хорошем качестве
      Они возвращаются смотреть онлайн бесплатно в хорошем качестве


      Вы не можете начинать темы
      Вы не можете отвечать на сообщения
      Вы не можете редактировать свои сообщения
      Вы не можете удалять свои сообщения
      Вы не можете голосовать в опросах
      Вы не можете прикреплять файлы к сообщениям
      Вы можете скачивать файлы