Присоединяйтесь к нам в Telegram!, здесь всегда актуальный адрес сайта, оперативная поддержка и многое другое!!

>

5.9

iTunes

7.4

iTunes

9.4

1 сезон

1

7.4

2 сезон

7.2

iTunes

7.3

1 сезон

13

6.1

iTunes

8.3

GOG

30

ULTIMATE

pack

9.9

Лицензия

ВАЖНО

ИГРА 18+

pack

7.3

RePack

MK11

7.7

RePack

jed

7.8

RePack

fifa19

8.5

RePack

RDR2

RePack

NEED FOR SPEED™ PAYBACK

5 сезон

9 сезон

Бесстыжие 9 сезон

Все сериалы

все сериалы на PB.wtf

RePack

FAR CRY 5

Anonymous, добрый день, мы катастрофически не успеваем собрать деньги на оплату серверов, помогите нам пожалуйста 5,10,15р., для нас важна любая помощь . В качестве благодарности мы отключим Вам всю рекламу на сайте (укажите свой ник в строку Ваше имя)!

×
  
Magnet ссылка

Мрачное лето / Dark Summer (Пол Солет / Paul Solet) [2015, США, триллер, WEB-DLRip, Любительский (двухголосый)[den904, DeadSno] piratbit.org

Мрачное лето через торрент piratbit.org

Размер: 1.42 GB | Добавлен: 6 лет 10 мес. назад | Торрент скачан:314 раз
Смотреть онлайн Мрачное лето | Скачать    Ребята, помогите собрать деньги на оплату серверов!!!

15-01-2015 02:16 Мрачное лето Скачать торрент  

Мрачное лето / Dark Summer
«Some crushes last forever»


  • Год выпуска: 2015
  • Страна: США
  • Жанр: триллер
  • Продолжительность: 01:21:37
  • Перевод: Любительский (двухголосый)[DeadSno & den904] - перевод на русский язык [Антонио]

  • Режиссер: Пол Солет / Paul Solet
  • В ролях:

    Кейр Гилкрист (Daniel), Петер Стормаре (Stokes), Грэйс Фиппс (Mona Wilson), Стелла Маив (Abby), Маэстро Харрелл (Kevin)

  • Описание:
    История Дэниела Вильямса, 17-летнего подростка, которого суд приговорил к домашнему аресту на все лето. Пока его мать отлучилась по делам, в доме происходит происшествие, которое влечет за собой цепь страшных и непредсказуемых событий. Одноклассница Дэниэла звонит ему по скайпу и обвиняет его в том, что он довел ее самоубийства. Обвиняет и убивает себя прямо на его глазах. Перед смертью она говорит, что придет к нему после смерти и заберет его с собой...
  • Рейтинг:



  • Качество: WEB-DLRip
  • Формат: :AVI
  • Видео кодек: XviD
  • Аудио кодек: AC3
  • Видео: 720x400 (16:9), 1895 kbps, 23,976 fps, 0,274 bpp
  • Аудио №1: Русский 5.1 / 48 kHz / 384 kbps / 16 bit
  • Аудио №2: Английский 2.0 / 48 kHz / 192 kbps / 16 bit
  • Релиз от: GEKADOL

    Код:

    General
    Complete name                            : I:\Dark.Summer.2015.WEB-DLRip.CINEMANIA.avi
    Format                                   : AVI
    Format/Info                              : Audio Video Interleave
    File size                                : 1.42 GiB
    Duration                                 : 1h 21mn
    Overall bit rate                         : 2 485 Kbps
    Writing application                      : VirtualDubMod 1.5.10.2 (build 2542/release)
    Writing library                          : VirtualDubMod build 2542/release

    Video
    ID                                       : 0
    Format                                   : MPEG-4 Visual
    Format profile                           : Advanced Simple@L5
    Format settings, BVOP                    : 2
    Format settings, QPel                    : No
    Format settings, GMC                     : No warppoints
    Format settings, Matrix                  : Default (H.263)
    Muxing mode                              : Packed bitstream
    Codec ID                                 : XVID
    Codec ID/Hint                            : XviD
    Duration                                 : 1h 21mn
    Bit rate                                 : 1 895 Kbps
    Width                                    : 720 pixels
    Height                                   : 400 pixels
    Display aspect ratio                     : 16:9
    Frame rate                               : 23.976 fps
    Color space                              : YUV
    Chroma subsampling                       : 4:2:0
    Bit depth                                : 8 bits
    Scan type                                : Progressive
    Compression mode                         : Lossy
    Bits/(Pixel*Frame)                       : 0.274
    Stream size                              : 1.08 GiB (76%)
    Writing library                          : XviD 64

    Audio #1
    ID                                       : 1
    Format                                   : AC-3
    Format/Info                              : Audio Coding 3
    Mode extension                           : CM (complete main)
    Codec ID                                 : 2000
    Duration                                 : 1h 21mn
    Bit rate mode                            : Constant
    Bit rate                                 : 384 Kbps
    Channel(s)                               : 6 channels
    Channel positions                        : Front: L C R, Side: L R, LFE
    Sampling rate                            : 48.0 KHz
    Bit depth                                : 16 bits
    Compression mode                         : Lossy
    Stream size                              : 224 MiB (15%)
    Alignment                                : Split accross interleaves
    Interleave, duration                     : 42 ms (1.00 video frame)
    Interleave, preload duration             : 500 ms

    Audio #2
    ID                                       : 2
    Format                                   : AC-3
    Format/Info                              : Audio Coding 3
    Mode extension                           : CM (complete main)
    Codec ID                                 : 2000
    Duration                                 : 1h 21mn
    Bit rate mode                            : Constant
    Bit rate                                 : 192 Kbps
    Channel(s)                               : 2 channels
    Channel positions                        : Front: L R
    Sampling rate                            : 48.0 KHz
    Bit depth                                : 16 bits
    Compression mode                         : Lossy
    Stream size                              : 112 MiB (8%)
    Alignment                                : Split accross interleaves
    Interleave, duration                     : 42 ms (1.00 video frame)
    Interleave, preload duration             : 500 ms


    Скриншоты:



    piratbit.org



  • Скачать Мрачное лето через торрент http://i64.fastpic.ru/big/2015/0115/dc/d4e82886035d3a36d0a9882a77da3bdc.jpg Скачать, смотреть онлайн Мрачное лето бесплантно в хорошем качестве Описание: История Дэниела Вильямса, 17-летнего подростка, которого суд приговорил к домашнему аресту на все лето. Пока его мать отлучилась ... 9.1 10 11
    Торрент: Зарегистрирован [2015-01-15 02:16] · скачан: 314 раз
    Статус: T временная
    Размер: 1.42 GB
    Как cкачать? Как скачать Мрачное лето через торрент | UTorrent

    28-11-2019 20:33  

    Отключить всю рекламу на сайте

    21-03-2015 18:29 Мрачное лето Скачать торрент  

    КАК ФИЛЬМ ?????????piratbit.org



      Дорогой пользователь! Огромная просьба, поблагодарите релизера, оцените раздачу и оставьте свои комментарий, если Вы скачали Мрачное лето через торрент бесплатно!
      Комментировать посты могут только пользователи прошедшие не сложную регистрацию
      Показать сообщения:    

      Мрачное лето через торрент
      Скачать бесплатно Мрачное лето
      Мрачное лето скачать торрент
      Мрачное лето смотреть онлайн
      Cкачать фильм Мрачное лето бесплатно
      Мрачное лето скачать торрент в хорошем качестве
      Мрачное лето смотреть онлайн бесплатно в хорошем качестве


      Вы не можете начинать темы
      Вы не можете отвечать на сообщения
      Вы не можете редактировать свои сообщения
      Вы не можете удалять свои сообщения
      Вы не можете голосовать в опросах
      Вы не можете прикреплять файлы к сообщениям
      Вы можете скачивать файлы