Доктор Стрэндж

Лицензия

Добыча

Дубляж

Дом дракона

1 сезон

Тор

Дубляж

В эфире

Дубляж

Там, где раки поют

MVO

Властелин колец

1 сезон

Ultimate

pack

Рекомендуем

30

Пиратка

ВАЖНО

ВАЖНО

Ghostwire

Пиратка

jed

RePack

nioh2

RePack

RDR2

RePack

NEED FOR SPEED™ PAYBACK

RePack

скачать торрент

Кинопоиск HD

Острые козырьки 6 сезон

6 сезон

FAR CRY 6

RePack

скачать торрент

Лицензия

скачать торрент

MVO

1

1 сезон

скачать торрент

1 сезон

скачать торрент

Лицензия

  

Чернила / Ink (Джеймин Винанс) [2009 г., фантастика, фэнтези, боевик, BDRip 720p, Любительский одноголосый]

Чернила через торрент piratbit.org

Размер: 3.65 GB | Добавлен: 7 лет 10 мес. назад | Торрент скачан:41 раз
Смотреть онлайн | Скачать   

17-01-2015 04:13 Чернила Скачать торрент  

Чернила / Ink
Год выпуска: 2009
Страна: США
Жанр: фантастика, фэнтези, боевик
Продолжительность: 01:46:14
Перевод: Любительский одноголосый
Субтитры: русские (N@me), английские

Режиссер: Джеймин Винанс
Продюссер: Джеймин Винанс, Киова К. Винанс, Лаура Райт
Сценарий: Джеймин Винанс
оператор:Джефф Пойнтер
композитор:Джеймин Винанс
художник:Киова К. Винанс
монтаж: Джеймин Винанс

Премьера в мире: 23 января 2009 год



В ролях: Крис Келли, Quinn Hunchar, Джессика Даффи, Jennifer Batter, Jeremy Make, Eme Ikwuakor, Шелби Мэлоун, Shannan Steele, Steve Sealy, Стивен Браун

Описание: Когда свет исчезает и город засыпает, две силы появляются. Они невидимы, но имеют Влacть над людьми во сне, борясь за наши души через сны. Одна сила дает надежду и силу через хорошие сны, другая вселяется в подсознательное через кошмары. Джон и Эмма, отец и дочь, ворвались в этот фантастический мир мечты, вынуждены бороться за свои души, чтобы вырваться из вечного кошмара. К тому же на своем пути они сталкиваются с необычными символами, которые существуют только в их подсознании.

Качество: BDRip 720p
Исходник: Ink 2009 BluRay 1080p MPEG-2 DD 2.0
Формат: MKV Matroska
Видео кодек: AVC
Аудио кодек: AC3
Видео: x264: High@4.1, 1280x720, 23.976fps, 152833 frames, ~4343.98 kb/s
Аудио#1: English; ac3 DD 2.0 192Kbps 48kHz
Аудио#2: English; ac3 Directors Commentary (Jamin and Kiowa Winans) DD 2.0 192Kbps 48kHz
Аудио#3: Russian; ac3 VO DD 2.0 192Kbps 48KHz

Релиз от: Группа A V C
скриншот  скриншот  скриншот  скриншот  скриншот  

General
Complete name : .\Ink (2009)\ink.2009.x264.DD2.0.rus.eng.comment.tRuAVC.mkv
Format : Matroska
File size : 3.65 GiB
Duration : 1h 46mn
Overall bit rate : 4 922 Kbps
Movie name : Ink (2009) [truAVC]
Encoded date : UTC 2010-01-31 18:18:31
Writing application : mkvmerge v3.0.0 ('Hang up your Hang-Ups') built on Dec 12 2009 15:20:35
Writing library : libebml v0.7.9 + libmatroska v0.8.1
Cover : Yes

Video
ID : 1
Format : AVC Matroska
Format/Info : Advanced Video Codec
Format profile : High@L4.1
Format settings, CABAC : Yes
Format settings, ReFrames : 9 frames
Muxing mode : Container profile=Unknown@4.1
Codec ID : V_MPEG4/ISO/AVC
Duration : 1h 46mn
Bit rate : 4 248 Kbps
Nominal bit rate : 4 344 Kbps
Width : 1 280 pixels
Height : 720 pixels
Display aspect ratio : 16:9
Frame rate : 23.976 fps
Resolution : 8 bits
Colorimetry : 4:2:0
Scan type : Progressive
Bits/(Pixel*Frame) : 0.192
Stream size : 3.15 GiB (86%)
Title : x264: High@4.1, 1280x720, 23.976fps, 152833 frames, ~4343.98 kb/s
Writing library : x264 core 84 r1400kMod 20fa784
Encoding settings : cabac=1 / ref=9 / deblock=1:-2:0 / analyse=0x3:0x113 / me=umh / subme=10 / psy=1 / psy_rd=1.0:0.4 / mixed_ref=1 / me_range=24 / chroma_me=1 / trellis=2 / 8x8dct=1 / cqm=0 / deadzone=21,11 / fast_pskip=1 / chroma_qp_offset=-4 / threads=1 / sliced_threads=0 / nr=0 / decimate=1 / mbaff=0 / constrained_intra=0 / bframes=6 / b_pyramid=2 / b_adapt=2 / b_bias=0 / direct=3 / wpredb=1 / wpredp=2 / keyint=250 / keyint_min=25 / scenecut=40 / intra_refresh=0 / rc_lookahead=60 / rc=2pass / mbtree=1 / bitrate=4344 / ratetol=1.0 / qcomp=0.70 / qpmin=10 / qpmax=51 / qpstep=4 / cplxblur=20.0 / qblur=0.5 / vbv_maxrate=50000 / vbv_bufsize=62500 / ip_ratio=1.40 / aq=4:1.00 / pulldown=0 / nal_hrd=0
Language : English
Matrix coefficients : BT.709-5, BT.1361, IEC 61966-2-4 709, SMPTE RP177

Audio #1
ID : 2
Format : AC-3
Format/Info : Audio Coding 3
Codec ID : A_AC3
Duration : 1h 46mn
Bit rate mode : Constant
Bit rate : 192 Kbps
Channel(s) : 2 channels
Channel positions : L R
Sampling rate : 48.0 KHz
Stream size : 146 MiB (4%)
Title : ac3 DD 2.0 192Kbps 48kHz eng
Language : English

Audio #2
ID : 3
Format : AC-3
Format/Info : Audio Coding 3
Codec ID : A_AC3
Duration : 1h 46mn
Bit rate mode : Constant
Bit rate : 192 Kbps
Channel(s) : 2 channels
Channel positions : L R
Sampling rate : 48.0 KHz
Stream size : 146 MiB (4%)
Title : ac3 Directors Commentary (Jamin and Kiowa Winans) DD 2.0 192Kbps 48kHz eng
Language : English

Audio #3
ID : 4
Format : AC-3
Format/Info : Audio Coding 3
Codec ID : A_AC3
Duration : 1h 46mn
Bit rate mode : Constant
Bit rate : 192 Kbps
Channel(s) : 2 channels
Channel positions : L R
Sampling rate : 48.0 KHz
Stream size : 146 MiB (4%)
Title : ac3 VO DD 2.0 192Kbps 48KHz rus
Language : Russian

Text #1
ID : 5
Format : UTF-8
Codec ID : S_TEXT/UTF8
Codec ID/Info : UTF-8 Plain Text
Title : srt eng
Language : English

Text #2
ID : 6
Format : UTF-8
Codec ID : S_TEXT/UTF8
Codec ID/Info : UTF-8 Plain Text
Title : srt N@me rus
Language : Russian

Menu
00:00:00.000 : en:Appointment
00:04:38.278 : en:The Storytellers
00:10:10.610 : en:Incubi
00:12:56.776 : en:Waking Emma
00:18:13.092 : en:Bucket Shop
00:21:48.307 : en:The Forest
00:26:55.614 : en:Key Master
00:31:23.382 : en:I Am Not You
00:39:23.862 : en:Traveling
00:41:59.017 : en:Negotiations
00:45:36.734 : en:They'll All Burn
00:48:49.927 : en:Shadowing Him
00:50:16.013 : en:The Collector
00:57:32.449 : en:Jacob's Chain
01:03:07.784 : en:Who You Were
01:06:08.465 : en:In Chains
01:09:34.170 : en:Sadie
01:13:24.400 : en:A Bigger Picture
01:17:52.167 : en:Extra Gift
01:21:10.366 : en:Light and Dark
01:27:54.770 : en:Greatest Asset
01:33:50.125 : en:Remember
01:38:59.434 : en:Dreaming
01:41:56.110 : en:End Credits




Скачать Чернила через торрент https://pic1.kartinco.top/images/81/3zjv7.jpg Скачать, смотреть онлайн Чернила бесплантно в хорошем качестве Описание: Когда свет исчезает и город засыпает, две силы появляются. Они невидимы, но имеют Влacть над людьми во сне, борясь за наши души ... 10 10 4
Info! Золотая раздача, скачанное не засчитывается.
Торрент: Зарегистрирован [2015-01-17 04:13] · скачан: 41 раз
Статус: √ проверено
Размер: 3.65 GB
Как cкачать? Как скачать Чернила через торрент | UTorrent




Последний раз редактировалось: RiZus (2015-01-17 07:56), всего редактировалось 1 раз

28-11-2019 20:33  


Отключить вcю реклaмy на сайте, в т.ч. и в плеере онлайн просмотра!

    Дорогой пользователь! Огромная просьба, поблагодарите релизера, оцените раздачу и оставьте свои комментарий, если Вы скачали Чернила через торрент бесплатно!!
    Комментировать посты могут только пользователи прошедшие не сложную регистрацию
    Показать сообщения:    


    Чернила через торрент
    Скачать бесплатно Чернила
    Чернила скачать торрент
    Чернила смотреть онлайн
    Cкачать фильм Чернила бесплатно
    Чернила скачать торрент в хорошем качестве
    Чернила смотреть онлайн бесплатно в хорошем качестве
    Вы не можете начинать темы
    Вы не можете отвечать на сообщения
    Вы не можете редактировать свои сообщения
    Вы не можете удалять свои сообщения
    Вы не можете голосовать в опросах
    Вы не можете прикреплять файлы к сообщениям
    Вы можете скачивать файлы
    Чернила / Ink [2009 г., фантастика, фэнтези, боевик, BDRip 720p, Любительский одноголосый] смотреть онлайн, скачать торрент picoco.icu