Ссылка на приватное зеркало нашего сайта всего за 1$. Внимание количество ограничено!!!

2 сезон

iTunes

1 сезон

1

iTunes

iTunes

iTunes

1 сезон

RePack

30

ИГРА 18+

pack

ВАЖНО

!!Акция!!

Alien_RageХит недели

RePack

MK11
pack

Забери бонус

RePack

jed

!!Акция!!

Alien_Rage

RePack

fifa19

RePack

Assassins Creed: Odyssey

RePack

NEED FOR SPEED™ PAYBACK

4 сезон

9 сезон

Бесстыжие 9 сезон

Все сериалы

все сериалы на PB.wtf

RePack

FAR CRY 5
  

Огни большого города / City Lights (Чарльз Чаплин) [1931 г., драма, мелодрама, комедия, BDRip 1080p, Оригинал] piratbit.org

Огни большого города через торрент piratbit.org

Размер: 7.95 GB | Добавлен: 5 лет 9 мес. назад | Торрент скачан:21 раз
Скачать  

17-01-2015 11:51 Огни большого города Скачать торрент  

Огни большого города / City Lights
Год выпуска: 1931
Страна: США
Жанр: драма, мелодрама, комедия
Продолжительность: 87 мин. / 01:27
Перевод: Оригинал
Субтитры: Русские

Режиссер: Чарльз Чаплин
Продюссер: Чарльз Чаплин
Сценарий: Чарльз Чаплин, Гарри Крокер, Гарри Клайв

Бюджет: $1 500 000
Премьера в мире: 30 января 1931

IMDB 8.60 (82 862)


В ролях: Чарльз Чаплин, Вирджиния Черрилл, Гарри Майерс, Аль Эрнест Гарсиа, Хэнк Манн, Джек Александр, Т.С. Александр, Виктор Александр, Альберт Остин, Гарри Айерс

Описание: Маленький Бродяга встречает красивую слепую девушку, торгующую цветами на улице, которая по ошибке принимает его за богатого герцога. Узнав о том, что операция может вернуть ей зрение, маленький Бродяга пускается на поиски денег.

Качество: BDRip 1080p
Формат: MKV
Видео кодек: AVC
Аудио кодек: DTS
Видео: AVC at 11,6 Мбит/сек 1424 x 1080 (1.319) at 23.976 fps
Аудио#1: DTS at 1510 Кбит/сек 2 канала(ов), 48,0 КГц
Релиз от: HDReactor
скриншот   скриншот   скриншот   скриншот   скриншот  
Общее
Уникальный идентификатор : 232831779837548720630583717467290146552 (0xAF29C509B5BB3AA99FB4BA279D1D16F8)
Полное имя : D:\Видео\City Lights_Rip1080_HDR.mkv
Формат : Matroska
Версия формата : Version 2
Размер файла : 7,95 Гбайт
Продолжительность : 1 ч. 27 м.
Режим общего битрейта : Переменный
Общий поток : 13,1 Мбит/сек
Название фильма : City Lights_Rip1080_HDReactor.org
Дата кодирования : UTC 2011-04-26 17:33:29
Программа кодирования : mkvmerge v3.4.0 ('Rapunzel') сборка от May 15 2010 09:38:20
Библиотека кодирования : libebml v0.8.0 + libmatroska v0.9.0

Видео
Идентификатор : 1
Формат : AVC
Формат/Информация : Advanced Video Codec
Профиль формата : High@L4.1
Параметр CABAC формата : Да
Параметр ReFrames формата : 4 кадра
Идентификатор кодека : V_MPEG4/ISO/AVC
Продолжительность : 1 ч. 27 м.
Вид битрейта : Переменный
Битрейт : 11,6 Мбит/сек
Максимальный битрейт : 40,0 Мбит/сек
Ширина : 1424 пикселя
Высота : 1080 пикселей
Соотношение сторон : 4:3
Режим частоты кадров : Постоянный
Частота кадров : 23,976 кадра/сек
Цветовое пространство : YUV
Субдискретизация насыщенности : 4:2:0
Битовая глубина : 8 бит
Тип развёртки : Прогрессивная
Бит/(Пиксели*Кадры) : 0.314
Размер потока : 6,87 Гбайт (86%)
Библиотека кодирования : x264 core 114 r1913 5fd3dce
Настройки программы : cabac=1 / ref=5 / deblock=1:-3:-3 / analyse=0x3:0x113 / me=umh / subme=10 / psy=1 / psy_rd=1.00:0.10 / mixed_ref=1 / me_range=32 / chroma_me=1 / trellis=2 / 8x8dct=1 / cqm=0 / deadzone=21,11 / fast_pskip=0 / chroma_qp_offset=-4 / threads=6 / sliced_threads=0 / slices=4 / nr=0 / decimate=0 / interlaced=0 / constrained_intra=0 / bframes=7 / b_pyramid=1 / b_adapt=2 / b_bias=0 / direct=1 / weightb=1 / open_gop=0 / weightp=2 / keyint=250 / keyint_min=23 / scenecut=40 / intra_refresh=0 / rc_lookahead=40 / rc=2pass / mbtree=0 / bitrate=11565 / ratetol=1.0 / qcomp=0.60 / qpmin=10 / qpmax=51 / qpstep=4 / cplxblur=20.0 / qblur=0.5 / vbv_maxrate=40000 / vbv_bufsize=30000 / nal_hrd=vbr / ip_ratio=1.40 / pb_ratio=1.30 / aq=1:0.80
Язык : English
Default : Нет
Forced : Нет

Аудио
Идентификатор : 2
Формат : DTS
Формат/Информация : Digital Theater Systems
Режим : 16
Параметр Endianness формата : Big
Идентификатор кодека : A_DTS
Продолжительность : 1 ч. 27 м.
Вид битрейта : Постоянный
Битрейт : 1509 Кбит/сек
Каналы : 2 канала
Расположение каналов : Front: L R
Частота : 48,0 КГц
Битовая глубина : 24 бит
Метод сжатия : С потерями
Размер потока : 939 Мбайт (12%)
Язык : English
Default : Да
Forced : Нет

Текст
Идентификатор : 3
Формат : UTF-8
Идентификатор кодека : S_TEXT/UTF8
Идентификатор кодека/Информация : UTF-8 Plain Text
Язык : Russian
Default : Да
Forced : Нет

Меню
00:00:00.000 : en:00:00:00.000
00:11:11.254 : en:00:11:11.254
00:20:29.019 : en:00:20:29.019
00:33:52.030 : en:00:33:52.030
00:41:47.880 : en:00:41:47.880
00:53:07.643 : en:00:53:07.643
01:03:12.664 : en:01:03:12.664
01:16:01.140 : en:01:16:01.140

Огни большого города скачать торрент


piratbit.org
KMessa-fan писал(а):

# сомнительно
Недокроп



Скачать Огни большого города через торрент http://pic.kartinco.top/images/8/muiyx.jpg Скачать фильм Огни большого города через торрент бесплантно в хорошем качестве Описание: Маленький Бродяга встречает красивую слепую девушку, торгующую цветами на улице, которая по ошибке принимает его за богатого ... 10 10 10
Info! Золотая раздача, скачанное не засчитывается.
Торрент: Зарегистрирован [2015-01-17 11:51] · скачан: 21 раз
Статус: # сомнительно
Размер: 7.95 GB
Как cкачать? Как скачать Огни большого города через торрент | qTorrent

% Раздел Тема Автор DL S | L
Фильмы [HD 720p, 1080p] (Хороший звук DUB, MVO) [ 11.33 GB ] Огни большого города / City Lights [1931 BDRip 1080p] Original + Sub Seedtank Скачать
1 | 0
Классика зарубежного кино [ 1.45 GB ] Огни большого города / City Lights [1931 BDRip] spaMER1992 Скачать
1 | 0


Последний раз редактировалось: StarKey (2015-01-17 15:11), всего редактировалось 3 раз(а)

28-11-2019 20:33  

Отключить всю рекламу на сайте

17-01-2015 14:45 Огни большого города Скачать торрент  

Для любых AVC рипов присутствие текстового отчёта MediaInfo обязательно.
Как получить информацию по видеофайлу (отчёт MediaInfo)

Скриншоты должны быть сняты с раздаваемого материала, а не найдены в сети.
Обратите внимание - для HD-рипов формат скриншотов png
Как сделать скриншот?

Об исправлении сообщите в лс со ссылкой на раздачу.piratbit.org



    Дорогой пользователь! Огромная просьба, поблагодарите релизера, оцените раздачу и оставьте свои комментарий, если Вы скачали Огни большого города через торрент бесплатно! Внесите свою лепту в развитие PiratBit!
    Комментировать посты могут только пользователи прошедшие не сложную регистрацию
    Показать сообщения:    

    Огни большого города через торрент
    Скачать бесплатно Огни большого города
    Огни большого города скачать торрент
    Огни большого города смотреть онлайн
    Cкачать фильм Огни большого города бесплатно
    Огни большого города скачать торрент в хорошем качестве
    Огни большого города смотреть онлайн бесплатно в хорошем качестве


    Вы не можете начинать темы
    Вы не можете отвечать на сообщения
    Вы не можете редактировать свои сообщения
    Вы не можете удалять свои сообщения
    Вы не можете голосовать в опросах
    Вы не можете прикреплять файлы к сообщениям
    Вы можете скачивать файлы