Доктор Стрэндж

Лицензия

Добыча

Дубляж

Уэнсдэй

1 сезон

Тор

Дубляж

В эфире

Дубляж

Там, где раки поют

MVO

Властелин колец

1 сезон

Deluxe

pack

Рекомендуем

30

Пиратка

ВАЖНО

ВАЖНО

Ghostwire

Пиратка

jed

RePack

nioh2

RePack

RDR2

RePack

NEED FOR SPEED™ PAYBACK

RePack

скачать торрент

Кинопоиск HD

Острые козырьки 6 сезон

6 сезон

FAR CRY 6

RePack

скачать торрент

Лицензия

скачать торрент

MVO

1

1 сезон

скачать торрент

1 сезон

скачать торрент

Лицензия

  

Хайдер / Haider (Вишал Бхарадвадж ) [2014, триллер, драма, мелодрама, BDRip 1080p, Любительский (двухголосый)[den904, DeadSno]

Хайдер через торрент piratbit.org

Размер: 14.67 GB | Добавлен: 7 лет 10 мес. назад | Торрент скачан:9 раз
Смотреть онлайн | Скачать   

17-01-2015 12:18 Хайдер Скачать торрент  

Хайдер / Haider


Год выпуска:2014
Страна: Индия
Жанр:триллер, драма, мелодрама, криминал
Продолжительность:02:41:21
Перевод:Любительский (двухголосый)[den904, DeadSno]
Субтитры: русские (forced)(на песни),английские,
Режиссер:Вишал Бхарадвадж

  • В ролях:

    Табу (Ghazala Meer), Шахид Капур (Haider Meer), Шраддха Капур (Arshia, Haider's love-interest), Кэй Кэй Менон (Khurram Meer), Нарендра Джха (Dr. Hilal Meer), Кулбхушан Харбанда (Hussain Meer), Lalit Parimoo (Pervez Lone), Ашиш Видьятхи (Brigadier T.S Murthy), Амир Башир (Liyaqat, Arshia's brother), Sumit Kaul ((Salman 1), Courtier), Раджат Бхагат ((Salman 2), Courtier), Ашват Бхатт (Zahoor)
  • Описание:
    Индийская адаптация трагедии Уильяма Шекспира «Гамлет».

  • Мировая премьера:2 октября 2014

    Качество: BDRip 1080p
    Формат:MKV
    Видео кодек: AVC
    Аудио кодек:AC3, DTS
    Видео: AVC, 1920x816 (2.35:1), 9096 kbps, 23,976 fps, 0,242 bpp
    Аудио №1: русский / DTS / 5.1 / 48 kHz / 1510 kbps / 24 bit ||
    Аудио №2: русский / AC3 / 5.1 / 48 kHz / 640 kbps / 16 bit ||
    Аудио №3: Hindi / DTS / 5.1 / 48 kHz / 1510 kbps / 24 bit
    Навигация по главам: есть

    Код:

    General
    Unique ID                                : 201053269063722810094733015731133230849 (0x9741737D4CCEEC47A3A25CEAC3F02F01)
    Complete name                            : D:\Торенты\Haider.2014.Blu.Ray.1080p.CINEMANIA.mkv
    Format                                   : Matroska
    Format version                           : Version 4 / Version 2
    File size                                : 14.7 GiB
    Duration                                 : 2h 41mn
    Overall bit rate                         : 13.0 Mbps
    Movie name                               : Release Group CINEMANIA
    Encoded date                             : UTC 2015-01-02 00:09:37
    Writing application                      : mkvmerge v7.4.0 ('Circles') 64bit built on Dec 12 2014 12:19:56
    Writing library                          : libebml v1.3.0 + libmatroska v1.4.1

    Video
    ID                                       : 1
    Format                                   : AVC
    Format/Info                              : Advanced Video Codec
    Format profile                           : High@L4.1
    Format settings, CABAC                   : Yes
    Format settings, ReFrames                : 5 frames
    Codec ID                                 : V_MPEG4/ISO/AVC
    Duration                                 : 2h 41mn
    Bit rate                                 : 9 096 Kbps
    Width                                    : 1 920 pixels
    Height                                   : 816 pixels
    Display aspect ratio                     : 2.35:1
    Frame rate                               : 23.976 fps
    Color space                              : YUV
    Chroma subsampling                       : 4:2:0
    Bit depth                                : 8 bits
    Scan type                                : Progressive
    Bits/(Pixel*Frame)                       : 0.242
    Stream size                              : 10.3 GiB (70%)
    Title                                    : Release Group CINEMANIA
    Writing library                          : x264 core 142 r2491 24e4fed
    Encoding settings                        : cabac=1 / ref=5 / deblock=1:-3:-3 / analyse=0x3:0x133 / me=umh / subme=10 / psy=1 / psy_rd=1.00:0.00 / mixed_ref=1 / me_range=48 / chroma_me=1 / trellis=2 / 8x8dct=1 / cqm=0 / deadzone=21,11 / fast_pskip=1 / chroma_qp_offset=-2 / threads=6 / lookahead_threads=1 / sliced_threads=0 / nr=0 / decimate=1 / interlaced=0 / bluray_compat=0 / constrained_intra=0 / bframes=9 / b_pyramid=2 / b_adapt=2 / b_bias=0 / direct=3 / weightb=1 / open_gop=0 / weightp=2 / keyint=250 / keyint_min=23 / scenecut=40 / intra_refresh=0 / rc_lookahead=150 / rc=crf / mbtree=0 / crf=16.5 / qcomp=0.75 / qpmin=0 / qpmax=69 / qpstep=4 / vbv_maxrate=50000 / vbv_bufsize=62500 / crf_max=0.0 / nal_hrd=none / filler=0 / ip_ratio=1.30 / pb_ratio=1.20 / aq=1:0.75 / zones=112538,113512,crf=13
    Language                                 : English
    Default                                  : Yes
    Forced                                   : No

    Audio #1
    ID                                       : 2
    Format                                   : DTS
    Format/Info                              : Digital Theater Systems
    Codec ID                                 : A_DTS
    Duration                                 : 2h 41mn
    Bit rate mode                            : Constant
    Bit rate                                 : 1 510 Kbps
    Channel(s)                               : 6 channels
    Channel positions                        : Front: L C R, Side: L R, LFE
    Sampling rate                            : 48.0 KHz
    Bit depth                                : 24 bits
    Compression mode                         : Lossy
    Stream size                              : 1.70 GiB (12%)
    Title                                    : Влад и Снежинка
    Language                                 : Russian
    Default                                  : Yes
    Forced                                   : Yes

    Audio #2
    ID                                       : 3
    Format                                   : AC-3
    Format/Info                              : Audio Coding 3
    Mode extension                           : CM (complete main)
    Codec ID                                 : A_AC3
    Duration                                 : 2h 41mn
    Bit rate mode                            : Constant
    Bit rate                                 : 640 Kbps
    Channel(s)                               : 6 channels
    Channel positions                        : Front: L C R, Side: L R, LFE
    Sampling rate                            : 48.0 KHz
    Bit depth                                : 16 bits
    Compression mode                         : Lossy
    Stream size                              : 739 MiB (5%)
    Title                                    : Влад и Снежинка
    Language                                 : Russian
    Default                                  : No
    Forced                                   : No

    Audio #3
    ID                                       : 4
    Format                                   : DTS
    Format/Info                              : Digital Theater Systems
    Codec ID                                 : A_DTS
    Duration                                 : 2h 41mn
    Bit rate mode                            : Constant
    Bit rate                                 : 1 510 Kbps
    Channel(s)                               : 6 channels
    Channel positions                        : Front: L C R, Side: L R, LFE
    Sampling rate                            : 48.0 KHz
    Bit depth                                : 24 bits
    Compression mode                         : Lossy
    Stream size                              : 1.70 GiB (12%)
    Language                                 : Hindi
    Default                                  : No
    Forced                                   : No

    Text #1
    ID                                       : 5
    Format                                   : UTF-8
    Codec ID                                 : S_TEXT/UTF8
    Codec ID/Info                            : UTF-8 Plain Text
    Title                                    : forced
    Language                                 : Russian
    Default                                  : Yes
    Forced                                   : Yes

    Text #2
    ID                                       : 6
    Format                                   : UTF-8
    Codec ID                                 : S_TEXT/UTF8
    Codec ID/Info                            : UTF-8 Plain Text
    Language                                 : English
    Default                                  : No
    Forced                                   : No

    Menu
    00:00:00.000                             : :CrackDown
    00:14:13.853                             : :Conflict
    00:37:49.934                             : :Jhelum
    00:41:37.495                             : :Operation Bulbul
    00:43:41.077                             : :Flashback
    00:59:20.557                             : :Election
    01:02:55.230                             : :RoohDaar
    01:06:47.462                             : :Graveyard
    01:11:18.483                             : :Mama 2
    01:21:46.902                             : :Laal Chowk
    01:33:30.939                             : :Khul Kabhi Toh
    01:37:36.476                             : :Wedding
    01:44:56.916                             : :Bismil
    01:54:27.069                             : :Execution
    02:02:44.357                             : :Liyaqat's Return
    02:10:08.217                             : :Dule
    02:14:52.084                             : :So Jao
    02:20:18.410                             : :Freedom
    02:29:38.803                             : :Sacrifice
    02:34:38.269                             : :Aaj Ke Naam

    Скриншоты:



  • Скачать Хайдер через торрент http://i65.fastpic.ru/big/2015/0117/df/f69f3e75c7030740eef6cc0ee8ee50df.jpg Скачать, смотреть онлайн Хайдер бесплантно в хорошем качестве Описание:Индийская адаптация трагедии Уильяма Шекспира «Гамлет». Мировая премьера:2 октября 2014 ✦ ... 7.7 10 3
    Торрент: Зарегистрирован [2015-01-17 12:18] · скачан: 9 раз
    Статус: ∑ поглощено
    Размер: 14.67 GB
    Как cкачать? Как скачать Хайдер через торрент | UTorrent

    % Раздел Тема Автор DL S | L
    Индийское кино [ 2.19 GB ] Хайдер / Haider | Дубляж | HDRip, Дубляж [ICG Ворон Скачать
    1 | 1
    Фильмы (Blu-ray, BD-Remux, HDDVD) [ 38.85 GB ] Хайдер / Haider | DUB+DVO | 1080p Ворон Скачать
    1 | 0
    Индийское кино [ 1.46 GB ] Хайдер / Haider | | HDRip, Любительский (двухголосый Ворон Скачать
    1 | 0

    28-11-2019 20:33  


    Отключить вcю реклaмy на сайте, в т.ч. и в плеере онлайн просмотра!

      Дорогой пользователь! Огромная просьба, поблагодарите релизера, оцените раздачу и оставьте свои комментарий, если Вы скачали Хайдер через торрент бесплатно!!
      Комментировать посты могут только пользователи прошедшие не сложную регистрацию
      Показать сообщения:    


      Хайдер через торрент
      Скачать бесплатно Хайдер
      Хайдер скачать торрент
      Хайдер смотреть онлайн
      Cкачать фильм Хайдер бесплатно
      Хайдер скачать торрент в хорошем качестве
      Хайдер смотреть онлайн бесплатно в хорошем качестве
      Вы не можете начинать темы
      Вы не можете отвечать на сообщения
      Вы не можете редактировать свои сообщения
      Вы не можете удалять свои сообщения
      Вы не можете голосовать в опросах
      Вы не можете прикреплять файлы к сообщениям
      Вы можете скачивать файлы
      Хайдер / Haider [2014, триллер, драма, мелодрама, BDRip 1080p, Любительский [den904, DeadSno] смотреть онлайн, скачать торрент picoco.icu