Доктор Стрэндж

Лицензия

Добыча

Дубляж

Дом дракона

1 сезон

Тор

Дубляж

В эфире

Дубляж

Там, где раки поют

MVO

Властелин колец

1 сезон

Ultimate

pack

Рекомендуем

30

Пиратка

ВАЖНО

ВАЖНО

Ghostwire

Пиратка

jed

RePack

nioh2

RePack

RDR2

RePack

NEED FOR SPEED™ PAYBACK

RePack

скачать торрент

Кинопоиск HD

Острые козырьки 6 сезон

6 сезон

FAR CRY 6

RePack

скачать торрент

Лицензия

скачать торрент

MVO

1

1 сезон

скачать торрент

1 сезон

скачать торрент

Лицензия

  

Оставшийся / The Remaining (Кэйси Ла Скала ) [2014, ужасы, триллер, BDRip 1080p, Любительский (двухголосый)[den904, DeadSno]

Оставшийся через торрент piratbit.org

Размер: 9.77 GB | Добавлен: 7 лет 10 мес. назад | Торрент скачан:75 раз
Смотреть онлайн | Скачать   

19-01-2015 10:36 Оставшийся Скачать торрент  

Оставшийся / The Remaining

Год выпуска:2014
Страна:США
Жанр:ужасы, триллер
Продолжительность: 01:27:50
Перевод:Любительский (двухголосый)[den904, DeadSno]- перевод на русский язык [chup]
Субтитры: русские, английские, английские (SDH),
Режиссер:Кэйси Ла Скала
В ролях:

Джонни Пакар (Tommy), Шон Сайпос (Jack), Брайан Дечарт (Dan), Алекса ПенаВега (Skylar), Италиа Риччи (Allison), Liz E. Morgan (Sam), Джон Пайпер-Фергюсон (Pastor Shay), Ким Пачеко (Nurse Rachel), Хейли Ловитт (Southern Belle), Эрин Мерфи (Lindsey), Jennifer Brown Andersen (Relief Center Survivor), Rochelle Aycoth (Wedding Guest)
  • Описание:
    Несколько молодых людей собираются вместе, чтобы отпраздновать свадьбу двух своих друзей. Во время празднования происходит череда катастрофических событий, которая превращает празднование в борьбу не на жизнь, а на смерть. Герои отчаянно сражаются за свое убежище, за свои жизни с врагом, которого они никогда не встречали...


    Качество: BDRip 1080p
    Формат:MKV
    Видео кодек: AVC
    Аудио кодек:AC3, DTS
    Видео: AVC, 1920x1040 (16:9), 13463 kbps, 23,976 fps, 0,281 bpp
    Аудио №1: русский / AC3 / 5.1 / 48 kHz / 640 kbps / 16 bit ||
    Аудио №2: английский / DTS / 5.1 / 48 kHz / 1510 kbps / 24 bit
    Навигация по главам: есть

    Код:

    General
    Unique ID                                : 226679852885109796864076473491450059191 (0xAA88F39F13B751C6B82BE8CFFC9D59B7)
    Complete name                            : D:\Торенты\The.Remaining.2014.Blu.Ray.1080p.mkv
    Format                                   : Matroska
    Format version                           : Version 4 / Version 2
    File size                                : 9.77 GiB
    Duration                                 : 1h 27mn
    Overall bit rate                         : 15.9 Mbps
    Movie name                               : Release Group CINEMANIA
    Encoded date                             : UTC 2015-01-16 20:20:11
    Writing application                      : mkvmerge v7.5.0 ('Glass Culture') 64bit built on Jan  4 2015 16:48:44
    Writing library                          : libebml v1.3.1 + libmatroska v1.4.2

    Video
    ID                                       : 1
    Format                                   : AVC
    Format/Info                              : Advanced Video Codec
    Format profile                           : High@L4.1
    Format settings, CABAC                   : Yes
    Format settings, ReFrames                : 4 frames
    Codec ID                                 : V_MPEG4/ISO/AVC
    Duration                                 : 1h 27mn
    Bit rate                                 : 13.5 Mbps
    Width                                    : 1 920 pixels
    Height                                   : 1 040 pixels
    Display aspect ratio                     : 16:9
    Frame rate                               : 23.976 fps
    Color space                              : YUV
    Chroma subsampling                       : 4:2:0
    Bit depth                                : 8 bits
    Scan type                                : Progressive
    Bits/(Pixel*Frame)                       : 0.281
    Stream size                              : 8.26 GiB (85%)
    Title                                    : Release Group CINEMANIA
    Writing library                          : x264 core 144 r2525 40bb568
    Encoding settings                        : cabac=1 / ref=4 / deblock=1:-3:-3 / analyse=0x3:0x133 / me=umh / subme=11 / psy=1 / psy_rd=1.00:0.00 / mixed_ref=1 / me_range=32 / chroma_me=1 / trellis=2 / 8x8dct=1 / cqm=0 / deadzone=21,11 / fast_pskip=0 / chroma_qp_offset=-2 / threads=18 / lookahead_threads=4 / sliced_threads=0 / nr=0 / decimate=0 / interlaced=0 / bluray_compat=0 / constrained_intra=0 / bframes=12 / b_pyramid=2 / b_adapt=2 / b_bias=0 / direct=3 / weightb=1 / open_gop=0 / weightp=2 / keyint=250 / keyint_min=24 / scenecut=40 / intra_refresh=0 / rc_lookahead=60 / rc=crf / mbtree=0 / crf=17.2 / qcomp=0.68 / qpmin=0 / qpmax=69 / qpstep=4 / vbv_maxrate=38000 / vbv_bufsize=30000 / crf_max=0.0 / nal_hrd=none / filler=0 / ip_ratio=1.20 / pb_ratio=1.10 / aq=1:0.70
    Language                                 : English
    Default                                  : Yes
    Forced                                   : No
    Matrix coefficients                      : BT.709-5, BT.1361, IEC 61966-2-4 709, SMPTE RP177

    Audio #1
    ID                                       : 2
    Format                                   : AC-3
    Format/Info                              : Audio Coding 3
    Mode extension                           : CM (complete main)
    Codec ID                                 : A_AC3
    Duration                                 : 1h 27mn
    Bit rate mode                            : Constant
    Bit rate                                 : 640 Kbps
    Channel(s)                               : 6 channels
    Channel positions                        : Front: L C R, Side: L R, LFE
    Sampling rate                            : 48.0 KHz
    Bit depth                                : 16 bits
    Compression mode                         : Lossy
    Stream size                              : 402 MiB (4%)
    Title                                    : Влад и Снежинка
    Language                                 : Russian
    Default                                  : Yes
    Forced                                   : Yes

    Audio #2
    ID                                       : 3
    Format                                   : DTS
    Format/Info                              : Digital Theater Systems
    Codec ID                                 : A_DTS
    Duration                                 : 1h 27mn
    Bit rate mode                            : Constant
    Bit rate                                 : 1 510 Kbps
    Channel(s)                               : 6 channels
    Channel positions                        : Front: L C R, Side: L R, LFE
    Sampling rate                            : 48.0 KHz
    Bit depth                                : 24 bits
    Compression mode                         : Lossy
    Stream size                              : 949 MiB (9%)
    Language                                 : English
    Default                                  : No
    Forced                                   : No

    Text #1
    ID                                       : 4
    Format                                   : UTF-8
    Codec ID                                 : S_TEXT/UTF8
    Codec ID/Info                            : UTF-8 Plain Text
    Language                                 : Russian
    Default                                  : Yes
    Forced                                   : Yes

    Text #2
    ID                                       : 5
    Format                                   : UTF-8
    Codec ID                                 : S_TEXT/UTF8
    Codec ID/Info                            : UTF-8 Plain Text
    Language                                 : English
    Default                                  : No
    Forced                                   : No

    Text #3
    ID                                       : 6
    Format                                   : UTF-8
    Codec ID                                 : S_TEXT/UTF8
    Codec ID/Info                            : UTF-8 Plain Text
    Title                                    : SDH
    Language                                 : English
    Default                                  : No
    Forced                                   : No

    Menu
    00:00:00.000                             : en:00:00:00.000
    00:06:06.616                             : en:00:06:06.616
    00:10:38.972                             : en:00:10:38.972
    00:16:27.069                             : en:00:16:27.069
    00:26:16.658                             : en:00:26:16.658
    00:32:54.055                             : en:00:32:54.055
    00:42:45.438                             : en:00:42:45.438
    00:46:11.310                             : en:00:46:11.310
    00:49:39.977                             : en:00:49:39.977
    00:55:47.135                             : en:00:55:47.135
    00:57:37.287                             : en:00:57:37.287
    01:02:49.641                             : en:01:02:49.641
    01:07:54.696                             : en:01:07:54.696
    01:11:14.437                             : en:01:11:14.437
    01:15:49.295                             : en:01:15:49.295
    01:20:33.954                             : en:01:20:33.954


    Скриншоты:

    Каталог Новинок (Фильмы-трейлеры, Игры, Сериалы, Мультфильмы)



  • Скачать Оставшийся через торрент http://i68.fastpic.ru/big/2015/0119/5c/0df10b29e001f826425d233a2e9d4f5c.jpg Скачать, смотреть онлайн Оставшийся бесплантно в хорошем качестве Описание:Несколько молодых людей собираются вместе, чтобы отпраздновать свадьбу двух своих друзей. Во время празднования происходит череда ... 8.4 10 5
    Торрент: Зарегистрирован [2015-01-19 10:36] · скачан: 75 раз
    Статус: T временная
    Размер: 9.77 GB
    Как cкачать? Как скачать Оставшийся через торрент | UTorrent

    % Раздел Тема Автор DL S | L
    Фильмы 2014 [DVDrip, WEB-DLRip, HDrip] [ 2.18 GB ] Оставшийся / The Remaining | | BDRip-AVC, Профессиональное (многоголосное Ворон Скачать
    1 | 0
    Фильмы 2014 [DVDrip, WEB-DLRip, HDrip] [ 1.37 GB ] Оставшийся / The Remaining | | HDRip, Профессиональное (многоголосное Ворон Скачать
    1 | 0
    Фильмы [HD 720p, 1080p] (Хороший звук DUB, MVO) [ 10.12 GB ] Оставшиеся / The Remaining | Лицензия | 1080p MVO [Лицензия Ворон Скачать
    1 | 0
    Фильмы [HD 720p, 1080p] (Хороший звук DUB, MVO) [ 9.89 GB ] Оставшиеся / The Remaining | Оставшиеся / The Remaining | 1080p MVO Ворон Скачать
    1 | 0
    Фильмы 2014 [DVDrip, WEB-DLRip, HDrip] [ 1.37 GB ] Оставшийся / The Remaining | | HDRip MVO [online movies Ворон Скачать
    1 | 0

    28-11-2019 20:33  


    Отключить вcю реклaмy на сайте, в т.ч. и в плеере онлайн просмотра!

      Дорогой пользователь! Огромная просьба, поблагодарите релизера, оцените раздачу и оставьте свои комментарий, если Вы скачали Оставшийся через торрент бесплатно!!
      Комментировать посты могут только пользователи прошедшие не сложную регистрацию
      Показать сообщения:    


      Оставшийся через торрент
      Скачать бесплатно Оставшийся
      Оставшийся скачать торрент
      Оставшийся смотреть онлайн
      Cкачать фильм Оставшийся бесплатно
      Оставшийся скачать торрент в хорошем качестве
      Оставшийся смотреть онлайн бесплатно в хорошем качестве
      Вы не можете начинать темы
      Вы не можете отвечать на сообщения
      Вы не можете редактировать свои сообщения
      Вы не можете удалять свои сообщения
      Вы не можете голосовать в опросах
      Вы не можете прикреплять файлы к сообщениям
      Вы можете скачивать файлы
      Оставшийся / The Remaining [2014, ужасы, триллер, BDRip 1080p, Любительский [den904, DeadSno] смотреть онлайн, скачать торрент picoco.icu