Доктор Стрэндж

Лицензия

Добыча

Дубляж

Дом дракона

1 сезон

Тор

Дубляж

В эфире

Дубляж

Там, где раки поют

MVO

Властелин колец

1 сезон

Deluxe

pack

Рекомендуем

30

Пиратка

ВАЖНО

ВАЖНО

Ghostwire

Пиратка

jed

RePack

nioh2

RePack

RDR2

RePack

NEED FOR SPEED™ PAYBACK

RePack

скачать торрент

Кинопоиск HD

Острые козырьки 6 сезон

6 сезон

FAR CRY 6

RePack

скачать торрент

Лицензия

скачать торрент

MVO

1

1 сезон

скачать торрент

1 сезон

скачать торрент

Лицензия

  

Лифт: Три минуты могут изменить вашу жизнь / The Elevator: Three Minutes Can Change Your Life (Массимо Кольиторе ) [2013, триллер, драма, BDRip 1080p, Любительский (двухголосый) [den904, DeadSno]

Лифт: Три минуты могут изменить вашу жизнь через торрент piratbit.org

Размер: 7.82 GB | Добавлен: 7 лет 10 мес. назад | Торрент скачан:24 раза
Смотреть онлайн | Скачать   

19-01-2015 19:10 Лифт: Три минуты могут изменить вашу жизнь Скачать торрент  

Лифт: Три минуты могут изменить вашу жизнь / The Elevator: Three Minutes Can Change Your Life
«Two stories, two hours, one culprit, one victim, no winner»

Год выпуска:2013
Страна: Италия
Жанр:триллер, драма
Продолжительность:01:32:15
Перевод:Любительский (двухголосый) [den904, DeadSno]
Субтитры: русские, русские (kon2011), английские
Режиссер:Массимо Кольиторе

  • В ролях:

    Кэролайн Гудолл (Katherine), Берт Янг (George), Джеймс Паркс (Jack), Сара Лаззаро (Jane), Кэти МакГоверн (Emily), Никколо Сенни (Irving), Джанфранко Террин (Deliveryman), Катя Греко (Sarah), Paolo Borzì (Dr. Erguld), Daniel Mba (Robert)
  • Описание:
    Известный телеведущий оказывается запертым в лифте с женщиной по имени Катрин, которая считает, что его шоу провоцирует преступления. Недавно она перенесла трагическую гибель сына и считает шоумена виновным в этом. Она начинает свое собственное жестокое шоу в реальном режиме. Здесь трудно понять, кто преступник, а кто жертва. Столкновение двух характеров, двух воззрений, и ответ на вопрос, кто прав, кто виноват, предстоит искать зрителю...


    Качество: BDRip 1080p
    Формат:MKV
    Видео кодек: AVC
    Аудио кодек:AC3, DTS
    Видео: AVC, 1920x816 (2.35:1), 8669 kbps, 23,976 fps, 0,231 bpp
    Аудио №1: русский / DTS / 5.1 / 48 kHz / 1510 kbps / 24 bit ||
    Аудио №2: русский / AC3 / 5.1 / 48 kHz / 448 kbps / 16 bit ||
    Аудио №3: английский / DTS / 5.1 / 48 kHz / 1510 kbps / 24 bit
    Навигация по главам: есть

    Код:

    General
    Unique ID                                : 251181118823755538024283997397142344973 (0xBCF7B94C50D4EFAA8ACBEA297E6E150D)
    Complete name                            : D:\Торенты\The.Elevator.2013.Blu.Ray.1080p.CINEMANIA.mkv
    Format                                   : Matroska
    Format version                           : Version 4 / Version 2
    File size                                : 7.82 GiB
    Duration                                 : 1h 32mn
    Overall bit rate                         : 12.1 Mbps
    Movie name                               : Release Group CINEMANIA
    Encoded date                             : UTC 2015-01-19 16:22:22
    Writing application                      : mkvmerge v7.5.0 ('Glass Culture') 64bit built on Jan  4 2015 16:48:44
    Writing library                          : libebml v1.3.1 + libmatroska v1.4.2

    Video
    ID                                       : 1
    Format                                   : AVC
    Format/Info                              : Advanced Video Codec
    Format profile                           : High@L4.1
    Format settings, CABAC                   : Yes
    Format settings, ReFrames                : 5 frames
    Codec ID                                 : V_MPEG4/ISO/AVC
    Duration                                 : 1h 32mn
    Bit rate                                 : 8 669 Kbps
    Width                                    : 1 920 pixels
    Height                                   : 816 pixels
    Display aspect ratio                     : 2.35:1
    Frame rate                               : 23.976 fps
    Color space                              : YUV
    Chroma subsampling                       : 4:2:0
    Bit depth                                : 8 bits
    Scan type                                : Progressive
    Bits/(Pixel*Frame)                       : 0.231
    Stream size                              : 5.43 GiB (69%)
    Title                                    : Release Group CINEMANIA
    Writing library                          : x264 core 142 r2491 24e4fed
    Encoding settings                        : cabac=1 / ref=5 / deblock=1:0:0 / analyse=0x3:0x113 / me=umh / subme=8 / psy=1 / psy_rd=1.00:0.00 / mixed_ref=1 / me_range=16 / chroma_me=1 / trellis=1 / 8x8dct=1 / cqm=0 / deadzone=21,11 / fast_pskip=0 / chroma_qp_offset=-2 / threads=12 / lookahead_threads=2 / sliced_threads=0 / nr=0 / decimate=1 / interlaced=0 / bluray_compat=0 / constrained_intra=0 / bframes=3 / b_pyramid=2 / b_adapt=2 / b_bias=0 / direct=3 / weightb=1 / open_gop=0 / weightp=2 / keyint=250 / keyint_min=23 / scenecut=40 / intra_refresh=0 / rc_lookahead=50 / rc=2pass / mbtree=1 / bitrate=8669 / ratetol=1.0 / qcomp=0.60 / qpmin=0 / qpmax=69 / qpstep=4 / cplxblur=20.0 / qblur=0.5 / ip_ratio=1.40 / aq=1:1.00
    Language                                 : English
    Default                                  : Yes
    Forced                                   : No

    Audio #1
    ID                                       : 2
    Format                                   : DTS
    Format/Info                              : Digital Theater Systems
    Codec ID                                 : A_DTS
    Duration                                 : 1h 32mn
    Bit rate mode                            : Constant
    Bit rate                                 : 1 510 Kbps
    Channel(s)                               : 6 channels
    Channel positions                        : Front: L C R, Side: L R, LFE
    Sampling rate                            : 48.0 KHz
    Bit depth                                : 24 bits
    Compression mode                         : Lossy
    Stream size                              : 996 MiB (12%)
    Title                                    : Влад и Снежинка
    Language                                 : Russian
    Default                                  : Yes
    Forced                                   : Yes

    Audio #2
    ID                                       : 3
    Format                                   : AC-3
    Format/Info                              : Audio Coding 3
    Mode extension                           : CM (complete main)
    Codec ID                                 : A_AC3
    Duration                                 : 1h 32mn
    Bit rate mode                            : Constant
    Bit rate                                 : 448 Kbps
    Channel(s)                               : 6 channels
    Channel positions                        : Front: L C R, Side: L R, LFE
    Sampling rate                            : 48.0 KHz
    Bit depth                                : 16 bits
    Compression mode                         : Lossy
    Stream size                              : 296 MiB (4%)
    Title                                    : Влад и Снежинка
    Language                                 : Russian
    Default                                  : No
    Forced                                   : No

    Audio #3
    ID                                       : 4
    Format                                   : DTS
    Format/Info                              : Digital Theater Systems
    Codec ID                                 : A_DTS
    Duration                                 : 1h 32mn
    Bit rate mode                            : Constant
    Bit rate                                 : 1 510 Kbps
    Channel(s)                               : 6 channels
    Channel positions                        : Front: L C R, Side: L R, LFE
    Sampling rate                            : 48.0 KHz
    Bit depth                                : 24 bits
    Compression mode                         : Lossy
    Stream size                              : 996 MiB (12%)
    Language                                 : English
    Default                                  : No
    Forced                                   : No

    Text #1
    ID                                       : 5
    Format                                   : UTF-8
    Codec ID                                 : S_TEXT/UTF8
    Codec ID/Info                            : UTF-8 Plain Text
    Language                                 : Russian
    Default                                  : Yes
    Forced                                   : Yes

    Text #2
    ID                                       : 6
    Format                                   : UTF-8
    Codec ID                                 : S_TEXT/UTF8
    Codec ID/Info                            : UTF-8 Plain Text
    Title                                    : kon2011
    Language                                 : Russian
    Default                                  : No
    Forced                                   : No

    Text #3
    ID                                       : 7
    Format                                   : UTF-8
    Codec ID                                 : S_TEXT/UTF8
    Codec ID/Info                            : UTF-8 Plain Text
    Language                                 : English
    Default                                  : No
    Forced                                   : No

    Menu
    00:00:00.000                             : en:00:00:00.000
    00:08:27.507                             : en:00:08:27.507
    00:13:20.800                             : en:00:13:20.800
    00:21:12.271                             : en:00:21:12.271
    00:28:51.730                             : en:00:28:51.730
    00:35:46.144                             : en:00:35:46.144
    00:43:58.636                             : en:00:43:58.636
    00:49:35.973                             : en:00:49:35.973
    00:57:33.450                             : en:00:57:33.450
    01:08:26.102                             : en:01:08:26.102
    01:17:53.669                             : en:01:17:53.669
    01:24:52.087                             : en:01:24:52.087

    Скриншоты:



  • Скачать Лифт: Три минуты могут изменить вашу жизнь через торрент http://i63.fastpic.ru/big/2015/0119/50/692ec83cfd305e7fdb5a7a8708aaab50.jpg Скачать, смотреть онлайн Лифт: Три минуты могут изменить вашу жизнь бесплантно в хорошем качестве Описание:Известный телеведущий оказывается запертым в лифте с женщиной по имени Катрин, которая считает, что его шоу провоцирует ... 7.5 10 2
    Торрент: Зарегистрирован [2015-01-19 19:10] · скачан: 24 раз
    Статус: T временная
    Размер: 7.82 GB
    Как cкачать? Как скачать Лифт: Три минуты могут изменить вашу жизнь через торрент | UTorrent

    % Раздел Тема Автор DL S | L
    T Фильмы 2013 (Звук TS, Cam, VO, DVO) [ 1.4 GB ] Лифт: Три минуты могут изменить вашу жизнь / The Elevator: Three Minutes Can Change Your Life | | HDRip, Любительский (двухголосый Ворон Скачать
    1 | 0

    28-11-2019 20:33  


    Отключить вcю реклaмy на сайте, в т.ч. и в плеере онлайн просмотра!

      Дорогой пользователь! Огромная просьба, поблагодарите релизера, оцените раздачу и оставьте свои комментарий, если Вы скачали Лифт: Три минуты могут изменить вашу жизнь через торрент бесплатно!!
      Комментировать посты могут только пользователи прошедшие не сложную регистрацию
      Показать сообщения:    


      Лифт: Три минуты могут изменить вашу жизнь через торрент
      Скачать бесплатно Лифт: Три минуты могут изменить вашу жизнь
      Лифт: Три минуты могут изменить вашу жизнь скачать торрент
      Лифт: Три минуты могут изменить вашу жизнь смотреть онлайн
      Cкачать фильм Лифт: Три минуты могут изменить вашу жизнь бесплатно
      Лифт: Три минуты могут изменить вашу жизнь скачать торрент в хорошем качестве
      Лифт: Три минуты могут изменить вашу жизнь смотреть онлайн бесплатно в хорошем качестве
      Вы не можете начинать темы
      Вы не можете отвечать на сообщения
      Вы не можете редактировать свои сообщения
      Вы не можете удалять свои сообщения
      Вы не можете голосовать в опросах
      Вы не можете прикреплять файлы к сообщениям
      Вы можете скачивать файлы
      Лифт: Три минуты могут изменить вашу жизнь / The Elevator: Three Minutes Can Change Your Life [2013, триллер, драма, BDRip 1080p, Любительский [den904, DeadSno] смотреть онлайн, скачать торрент picoco.icu