Присоединяйтесь к нам в Telegram!, здесь всегда актуальный адрес сайта, оперативная поддержка и многое другое!!

>

5.9

iTunes

7.4

iTunes

9.4

1 сезон

1

7.4

2 сезон

7.2

iTunes

7.3

1 сезон

13

6.1

iTunes

8.3

Пиратка

30

ULTIMATE

pack

9.9

Лицензия

ВАЖНО

ИГРА 18+

pack

7.3

RePack

MK11

7.7

RePack

jed

7.8

RePack

fifa19

8.5

RePack

RDR2

RePack

NEED FOR SPEED™ PAYBACK

5 сезон

9 сезон

Бесстыжие 9 сезон

Все сериалы

все сериалы на PB.wtf

RePack

FAR CRY 5

Anonymous, добрый вечер, мы катастрофически не успеваем собрать деньги на оплату серверов, помогите нам пожалуйста 5,10,15р., для нас важна любая помощь . В качестве благодарности мы отключим Вам всю рекламу на сайте (укажите свой ник в строку Ваше имя)!

×
  
Magnet ссылка

Против солнца / Against the Sun (Брайан Питер Фальк ) [2015, приключения, WEB-DLRip, Любительский (одноголосый) [den904] piratbit.org

Против солнца через торрент piratbit.org

Размер: 1.29 GB | Добавлен: 6 лет 10 мес. назад | Торрент скачан:955 раз
Смотреть онлайн Против солнца | Скачать    Ребята, помогите собрать деньги на оплату серверов!!!

21-01-2015 13:07 Против солнца Скачать торрент  


Против солнца / Against the Sun


Год выпуска:2015
Страна: США
Жанр:приключения
Продолжительность:01:39:26
Перевод:Любительский (одноголосый) [den904]
Режиссер:Брайан Питер Фальк

  • В ролях:

    Том Фелтон (Tony Pastula), Гаррет Диллахант (Harold Dixon), Джейк Эйбел (Gene Aldrich), Надя Парра (Frances)
  • Описание:
    Одна из самых страшных историй Второй мировой войны, три пилота американских ВВС вынуждены выживать после крушения самолёта в южной части Тихого Океана. Имея только небольшой спасательный плот, без еды, воды и вспомогательных материалов, трио должно полагаться на самих себя, чтобы пережить голод, шторма и атаки акул, и привести свой маленький плот в безопасное место.

  • Мировая премьера:23 января 2015

    Качество: WEB-DLRip
    Формат:AVI
    Видео кодек: XviD
    Аудио кодек:MP3
    Видео: XviD, 720x400 (16:9), 1654 kbps, 23,976 fps, 0,240 bpp
    Аудио: MP3 / 2.0 / 44 kHz / 192 kbps /


    Код:

    General
    Complete name                            : D:\Торенты\Against.the.Sun.2014.HDRip.avi
    Format                                   : AVI
    Format/Info                              : Audio Video Interleave
    File size                                : 1.29 GiB
    Duration                                 : 1h 39mn
    Overall bit rate                         : 1 856 Kbps
    Writing application                      : AVI-Mux GUI 1.17.8.3, Feb 16 201019:42:50
    Writing library                          : VirtualDub build 34753/release

    Video
    ID                                       : 0
    Format                                   : MPEG-4 Visual
    Format profile                           : Advanced Simple@L5
    Format settings, BVOP                    : 2
    Format settings, QPel                    : No
    Format settings, GMC                     : No warppoints
    Format settings, Matrix                  : Default (H.263)
    Muxing mode                              : Packed bitstream
    Codec ID                                 : XVID
    Codec ID/Hint                            : XviD
    Duration                                 : 1h 39mn
    Bit rate                                 : 1 654 Kbps
    Width                                    : 720 pixels
    Height                                   : 400 pixels
    Display aspect ratio                     : 16:9
    Frame rate                               : 23.976 fps
    Color space                              : YUV
    Chroma subsampling                       : 4:2:0
    Bit depth                                : 8 bits
    Scan type                                : Progressive
    Compression mode                         : Lossy
    Bits/(Pixel*Frame)                       : 0.240
    Stream size                              : 1.15 GiB (89%)
    Writing library                          : XviD 64

    Audio
    ID                                       : 1
    Format                                   : MPEG Audio
    Format version                           : Version 1
    Format profile                           : Layer 3
    Codec ID                                 : 55
    Codec ID/Hint                            : MP3
    Duration                                 : 1h 39mn
    Bit rate mode                            : Constant
    Bit rate                                 : 192 Kbps
    Channel(s)                               : 2 channels
    Sampling rate                            : 44.1 KHz
    Compression mode                         : Lossy
    Stream size                              : 137 MiB (10%)
    Alignment                                : Split accross interleaves
    Interleave, duration                     : 42 ms (1.00 video frame)
    Interleave, preload duration             : 500 ms

    Скриншоты:

    Каталог Новинок (Фильмы-трейлеры, Игры, Сериалы, Мультфильмы)

    © Оформление by Ворон
    piratbit.org



  • Скачать Против солнца через торрент https://pic1.kartinco.top/images/61/ordi9.jpg Скачать, смотреть онлайн Против солнца бесплантно в хорошем качестве Описание:Одна из самых страшных историй Второй мировой войны, три пилота американских ВВС вынуждены выживать после крушения самолёта в ... 9 10 23
    Торрент: Зарегистрирован [2015-01-21 13:07] · скачан: 955 раз
    Статус: T временная
    Размер: 1.29 GB
    Как cкачать? Как скачать Против солнца через торрент | UTorrent

    % Раздел Тема Автор DL S | L
    T Фильмы (WEB-DL 720p, 1080p) [ 3.28 GB ] Против солнца / Against the Sun [2015 WEB-DL 720p Любительский [den904] Ворон Скачать
    1 | 0

    28-11-2019 20:33  

    Отключить всю рекламу на сайте

    22-01-2015 16:35 Против солнца Скачать торрент  

    что за статистика такая ? уже раздал 48 ГБ а пишет 22ГБ ????? :cansored:piratbit.org



    25-01-2015 12:35 Против солнца Скачать торрент  

    Эхеххее.. дожили.. вот и Драко Малфой с фашистами сражается.
    Странно, что не в одиночку всех победил (хотя, может вторая часть будет).piratbit.org



    27-01-2015 23:51 Против солнца Скачать торрент  

    ХОРОШИЙ ФИЛЬМ.piratbit.org



    10-02-2015 17:38 Против солнца Скачать торрент  

    Не долетели? Или перелетели?piratbit.org



    15-06-2015 20:31 Против солнца Скачать торрент  

    Спасибо за раздачу!piratbit.org



    20-06-2015 18:07 Против солнца Скачать торрент  

    Alex1ey писал(а):

    Не долетели? Или перелетели?

    походу не взлетали!piratbit.org



      Дорогой пользователь! Огромная просьба, поблагодарите релизера, оцените раздачу и оставьте свои комментарий, если Вы скачали Против солнца через торрент бесплатно!
      Комментировать посты могут только пользователи прошедшие не сложную регистрацию
      Показать сообщения:    

      Против солнца через торрент
      Скачать бесплатно Против солнца
      Против солнца скачать торрент
      Против солнца смотреть онлайн
      Cкачать фильм Против солнца бесплатно
      Против солнца скачать торрент в хорошем качестве
      Против солнца смотреть онлайн бесплатно в хорошем качестве


      Вы не можете начинать темы
      Вы не можете отвечать на сообщения
      Вы не можете редактировать свои сообщения
      Вы не можете удалять свои сообщения
      Вы не можете голосовать в опросах
      Вы не можете прикреплять файлы к сообщениям
      Вы можете скачивать файлы