Присоединяйтесь к нам в Telegram!, здесь всегда актуальный адрес сайта, оперативная поддержка и многое другое!!

>

5.9

iTunes

7.4

iTunes

9.4

1 сезон

1

7.4

2 сезон

7.2

iTunes

7.3

iTunes

13

6.1

iTunes

8.3

Пиратка

30

ULTIMATE

pack

9.9

Лицензия

ВАЖНО

ИГРА 18+

pack

7.3

RePack

MK11

7.7

RePack

jed

7.8

RePack

fifa19

8.5

RePack

RDR2

RePack

NEED FOR SPEED™ PAYBACK

5 сезон

9 сезон

Бесстыжие 9 сезон

Все сериалы

все сериалы на PB.wtf

RePack

FAR CRY 5

Anonymous, доброй ночи, мы катастрофически не успеваем собрать деньги на оплату серверов, помогите нам пожалуйста 5,10,15р., для нас важна любая помощь . В качестве благодарности мы отключим Вам всю рекламу на сайте (укажите свой ник в строку Ваше имя)!

×
  
Magnet ссылка

Гензель против Гретель / Hansel Vs. Gretel (Бен Демари) [2015 г. США, Ужасы, HDRip, Любительский одноголосый - datynet] piratbit.org

Гензель против Гретель через торрент piratbit.org

Размер: 1.2 GB | Добавлен: 6 лет 10 мес. назад | Торрент скачан:600 раз
Смотреть онлайн Гензель против Гретель | Скачать    Ребята, помогите собрать деньги на оплату серверов!!!

24-01-2015 15:35 Гензель против Гретель Скачать торрент  

Гензель против Гретель / Hansel Vs. Gretel Год выпуска: 2015
Выпущено:: США, Global Asylum
Жанр: Ужасы
Длительность: 01:26:30
Перевод: Любительский одноголосый - datynet
Субтитры: Отсутствуют
Режиссер:Бен Демари
В ролях:
Брент Лайдик, Лили Баросс, Акилла Золл, Джереми Инман, Мария Олсен, Кэрол Станционе

Описание:
Когда Гретель попадает под "темное заклинание" и организует шабаш ведьм, Гензель должны найти в себе мужество бороться с своей сестрой-близнецом и зловещими силами, контролирующие ее.



Качество: HDRip
Формат: AVI
Видео кодек: XviD
Аудио кодек:Русский-MP3
Видео: 720x400, 1791 kbps, 23,976 fps, 0.259
Аудио#1: Русский / 2 ch / 44,1 kHz / 192 kbps / 16 bit








Общее
Полное имя : D:\uTorrent\Hansel.Vs.Gretel.2015.HDRip.avi
Формат : AVI
Формат/Информация : Audio Video Interleave
Размер файла : 1,20 Гбайт
Продолжительность : 1 ч. 26 м.
Общий поток : 1993 Кбит/сек
Название фильма : RARBG.COM - Hansel.Vs.Gretel.2015.HDRip.XviD.MP3-RARBG
Библиотека кодирования : VirtualDub build 34753/release
Примечание : RARBG.COM - Hansel.Vs.Gretel.2015.HDRip.XviD.MP3-RARBG

Видео
Идентификатор : 0
Формат : MPEG-4 Visual
Профиль формата : Simple@L5
Параметр BVOP формата : Нет
Параметр QPel формата : Нет
Параметр GMC формата : Без точки перехода
Параметр матрицы формата : Default (H.263)
Идентификатор кодека : XVID
Идентификатор кодека/Подсказка : XviD
Продолжительность : 1 ч. 26 м.
Битрейт : 1791 Кбит/сек
Ширина : 720 пикселей
Высота : 400 пикселей
Соотношение сторон : 16:9
Частота кадров : 23,976 кадра/сек
Цветовое пространство : YUV
Субдискретизация насыщенности : 4:2:0
Битовая глубина : 8 бит
Тип развёртки : Прогрессивная
Метод сжатия : С потерями
Бит/(Пиксели*Кадры) : 0.259
Размер потока : 1,08 Гбайт (90%)
Библиотека кодирования : Lavc56.13.100

Аудио
Идентификатор : 1
Формат : MPEG Audio
Версия формата : Version 1
Профиль формата : Layer 3
Идентификатор кодека : 55
Идентификатор кодека/Подсказка : MP3
Продолжительность : 1 ч. 26 м.
Вид битрейта : Постоянный
Битрейт : 192 Кбит/сек
Каналы : 2 канала
Частота : 44,1 КГц
Метод сжатия : С потерями
Размер потока : 119 Мбайт (10%)
Выравнивание : Разделение по промежуткам
Продолжительность промежутка : 42 мс. (1,00 видеокадр)
Время предзагрузки промежутка : 500 мс.

Приятного просмотра! Не забывайте говорить спасибо!!!
piratbit.org



Скачать Гензель против Гретель через торрент http://i64.fastpic.ru/big/2015/0122/ce/5409a6832dbcd031f4617dc5726118ce.jpg Скачать, смотреть онлайн Гензель против Гретель бесплантно в хорошем качестве Описание: Когда Гретель попадает под "темное заклинание" и организует шабаш ведьм, Гензель должны найти в себе мужество бороться с своей ... 8.9 10 20
Торрент: Зарегистрирован [2015-01-24 15:35] · скачан: 600 раз
Статус: T временная
Размер: 1.2 GB
Как cкачать? Как скачать Гензель против Гретель через торрент | UTorrent

% Раздел Тема Автор DL S | L
T Фильмы (WEB-DL 720p, 1080p) [ 2.8 GB ] Гензель против Гретель / Hansel Vs. Gretel [2015 WEB-DL 720p Любительский [datynet] Ворон Скачать
1 | 0

28-11-2019 20:33  

Отключить всю рекламу на сайте

26-01-2015 17:42 Гензель против Гретель Скачать торрент  

Что, млять, за ...... Следствие по телу????????? :cansored:piratbit.org



11-04-2015 15:10 Гензель против Гретель Скачать торрент  

Гензель должны найти в себе мужествоpiratbit.org



11-04-2015 15:30 Гензель против Гретель Скачать торрент  

Имена "Брент Лайдик, Лили Баросс, Акилла Золл, Джереми Инман, Мария Олсен, Кэрол Станционе" как-то сразу настораживают )))

Смотреть не буду, жалко времени.piratbit.org



11-04-2015 15:31 Гензель против Гретель Скачать торрент  

Тьфу блин, сразу не посмотрел ) Это же "Дурка продакшен"piratbit.org



    Дорогой пользователь! Огромная просьба, поблагодарите релизера, оцените раздачу и оставьте свои комментарий, если Вы скачали Гензель против Гретель через торрент бесплатно!
    Комментировать посты могут только пользователи прошедшие не сложную регистрацию
    Показать сообщения:    

    Гензель против Гретель через торрент
    Скачать бесплатно Гензель против Гретель
    Гензель против Гретель скачать торрент
    Гензель против Гретель смотреть онлайн
    Cкачать фильм Гензель против Гретель бесплатно
    Гензель против Гретель скачать торрент в хорошем качестве
    Гензель против Гретель смотреть онлайн бесплатно в хорошем качестве


    Вы не можете начинать темы
    Вы не можете отвечать на сообщения
    Вы не можете редактировать свои сообщения
    Вы не можете удалять свои сообщения
    Вы не можете голосовать в опросах
    Вы не можете прикреплять файлы к сообщениям
    Вы можете скачивать файлы