Доктор Стрэндж

Лицензия

Добыча

Дубляж

Дом дракона

1 сезон

Тор

Дубляж

В эфире

Дубляж

Там, где раки поют

MVO

Властелин колец

1 сезон

Deluxe

pack

Рекомендуем

30

Пиратка

ВАЖНО

ВАЖНО

Ghostwire

Пиратка

jed

RePack

nioh2

RePack

RDR2

RePack

NEED FOR SPEED™ PAYBACK

RePack

скачать торрент

Кинопоиск HD

Острые козырьки 6 сезон

6 сезон

FAR CRY 6

RePack

скачать торрент

Лицензия

скачать торрент

MVO

1

1 сезон

скачать торрент

1 сезон

скачать торрент

Лицензия

  

Ночь покера / Poker Night (Грег Френсис ) [2014, боевик, триллер, криминал, BDRip 1080p, Любительский (двухголосый) [den904, DeadSno]

Ночь покера через торрент piratbit.org

Размер: 7.93 GB | Добавлен: 7 лет 10 мес. назад | Торрент скачан:96 раз
Смотреть онлайн | Скачать   

24-01-2015 18:31 Ночь покера Скачать торрент  

Ночь покера / Poker Night


Год выпуска:2014
Страна: Канада, США
Жанр:боевик, триллер, криминал
Продолжительность:01:45:02
Перевод:Любительский (двухголосый) [den904, DeadSno]
Субтитры: русские, английские,
Режиссер:Грег Френсис

  • В ролях:

    Бо Мирчофф (Jeter), Рон Перлман (Calabrese), Джанкарло Эспозито (Bernard), Кори Лардж (Davis), Титус Уэлливер (Maxwell), Хелстон Сейдж (Amy), Рон Элдард (Cunningham), Майкл Эклунд, Киран Лардж (Shawn Allen), Локлин Манро (Munson), Чад Кровчук (Mr.Bootles), Лорен Доннелли (Reporter)
  • Описание:
    В городке Уорсо, штат Индиана, по традиции опытные детективы устраивают игры в покер, за которыми хвастаются своими самыми поучительными делами перед молодыми коллегами. После одной такой игры главного героя - начинающего детектива Джетера - ждет опыт, которым он сам сможет похвастаться, если, конечно, высвободится из рук маньяка...

  • Мировая премьера:20 ноября 2014

    Качество: BDRip 1080p
    Формат:MKV
    Видео кодек: AVC
    Аудио кодек:AC3, DTS
    Видео: AVC, 1920x800 (2.40:1), 8915 kbps, 23,976 fps, 0,242 bpp
    Аудио №1: русский / AC3 / 5.1 / 48 kHz / 384 kbps / 16 bit ||
    Аудио №2: английский / DTS / 5.1 / 48 kHz / 1510 kbps / 24 bit
    Навигация по главам: есть


    Код:

    General
    Unique ID                                : 219615516868986529107543312512772003502 (0xA53868F7016E0F43B18D1C71C738D6AE)
    Complete name                            : D:\Торенты\Poker.Night.2014.Blu.Ray.1080p.CINEMANIA.mkv
    Format                                   : Matroska
    Format version                           : Version 4 / Version 2
    File size                                : 7.93 GiB
    Duration                                 : 1h 45mn
    Overall bit rate                         : 10.8 Mbps
    Movie name                               : Release Group CINEMANIA
    Encoded date                             : UTC 2015-01-23 08:17:26
    Writing application                      : mkvmerge v7.5.0 ('Glass Culture') 64bit built on Jan  4 2015 16:48:44
    Writing library                          : libebml v1.3.1 + libmatroska v1.4.2

    Video
    ID                                       : 1
    Format                                   : AVC
    Format/Info                              : Advanced Video Codec
    Format profile                           : High@L4.1
    Format settings, CABAC                   : Yes
    Format settings, ReFrames                : 5 frames
    Codec ID                                 : V_MPEG4/ISO/AVC
    Duration                                 : 1h 45mn
    Bit rate                                 : 8 915 Kbps
    Width                                    : 1 920 pixels
    Height                                   : 800 pixels
    Display aspect ratio                     : 2.40:1
    Frame rate                               : 23.976 fps
    Color space                              : YUV
    Chroma subsampling                       : 4:2:0
    Bit depth                                : 8 bits
    Scan type                                : Progressive
    Bits/(Pixel*Frame)                       : 0.242
    Stream size                              : 6.38 GiB (80%)
    Title                                    : Release Group CINEMANIA
    Writing library                          : x264 core 144 r2525 40bb568
    Encoding settings                        : cabac=1 / ref=5 / deblock=1:0:0 / analyse=0x3:0x133 / me=umh / subme=7 / psy=1 / psy_rd=1.00:0.00 / mixed_ref=1 / me_range=16 / chroma_me=1 / trellis=1 / 8x8dct=1 / cqm=0 / deadzone=21,11 / fast_pskip=0 / chroma_qp_offset=-2 / threads=18 / lookahead_threads=3 / sliced_threads=0 / nr=0 / decimate=1 / interlaced=0 / bluray_compat=0 / constrained_intra=0 / bframes=3 / b_pyramid=2 / b_adapt=1 / b_bias=0 / direct=1 / weightb=1 / open_gop=0 / weightp=2 / keyint=250 / keyint_min=23 / scenecut=40 / intra_refresh=0 / rc_lookahead=40 / rc=2pass / mbtree=1 / bitrate=8915 / ratetol=1.0 / qcomp=0.60 / qpmin=0 / qpmax=69 / qpstep=4 / cplxblur=20.0 / qblur=0.5 / ip_ratio=1.40 / aq=1:1.00
    Language                                 : English
    Default                                  : Yes
    Forced                                   : No

    Audio #1
    ID                                       : 2
    Format                                   : AC-3
    Format/Info                              : Audio Coding 3
    Mode extension                           : CM (complete main)
    Codec ID                                 : A_AC3
    Duration                                 : 1h 45mn
    Bit rate mode                            : Constant
    Bit rate                                 : 384 Kbps
    Channel(s)                               : 6 channels
    Channel positions                        : Front: L C R, Side: L R, LFE
    Sampling rate                            : 48.0 KHz
    Bit depth                                : 16 bits
    Compression mode                         : Lossy
    Stream size                              : 289 MiB (4%)
    Title                                    : Влад и Снежинка
    Language                                 : Russian
    Default                                  : Yes
    Forced                                   : Yes

    Audio #2
    ID                                       : 3
    Format                                   : DTS
    Format/Info                              : Digital Theater Systems
    Codec ID                                 : A_DTS
    Duration                                 : 1h 45mn
    Bit rate mode                            : Constant
    Bit rate                                 : 1 510 Kbps
    Channel(s)                               : 6 channels
    Channel positions                        : Front: L C R, Side: L R, LFE
    Sampling rate                            : 48.0 KHz
    Bit depth                                : 24 bits
    Compression mode                         : Lossy
    Stream size                              : 1.11 GiB (14%)
    Language                                 : English
    Default                                  : No
    Forced                                   : No

    Text #1
    ID                                       : 4
    Format                                   : UTF-8
    Codec ID                                 : S_TEXT/UTF8
    Codec ID/Info                            : UTF-8 Plain Text
    Language                                 : Russian
    Default                                  : Yes
    Forced                                   : Yes

    Text #2
    ID                                       : 5
    Format                                   : UTF-8
    Codec ID                                 : S_TEXT/UTF8
    Codec ID/Info                            : UTF-8 Plain Text
    Language                                 : English
    Default                                  : No
    Forced                                   : No

    Menu
    00:00:00.000                             : en:00:00:00.000
    00:04:51.666                             : en:00:04:51.666
    00:11:21.306                             : en:00:11:21.306
    00:19:25.456                             : en:00:19:25.456
    00:26:36.970                             : en:00:26:36.970
    00:30:56.521                             : en:00:30:56.521
    00:35:29.961                             : en:00:35:29.961
    00:42:11.738                             : en:00:42:11.738
    00:49:15.035                             : en:00:49:15.035
    00:55:15.020                             : en:00:55:15.020
    01:01:01.575                             : en:01:01:01.575
    01:08:01.995                             : en:01:08:01.995
    01:13:17.560                             : en:01:13:17.560
    01:18:50.309                             : en:01:18:50.309
    01:28:30.931                             : en:01:28:30.931
    01:36:47.719                             : en:01:36:47.719

    Скриншоты:



  • Скачать Ночь покера через торрент http://i64.fastpic.ru/big/2015/0124/f5/5db91d746461c5bbc4b8ad88c885dff5.png Скачать, смотреть онлайн Ночь покера бесплантно в хорошем качестве Описание:В городке Уорсо, штат Индиана, по традиции опытные детективы устраивают игры в покер, за которыми хвастаются своими самыми ... 7.8 10 4
    Торрент: Зарегистрирован [2015-01-24 18:31] · скачан: 96 раз
    Статус: T временная
    Размер: 7.93 GB
    Как cкачать? Как скачать Ночь покера через торрент | UTorrent

    % Раздел Тема Автор DL S | L
    Фильмы [HD 720p, 1080p] (Хороший звук DUB, MVO) [ 13.17 GB ] Ночь покера / Poker Night | AVO | 1080p msltel Скачать
    1 | 0
    Фильмы [HD 720p, 1080p] (Хороший звук DUB, MVO) [ 4.85 GB ] Ночь покера / Poker Night | AVO | 720p msltel Скачать
    1 | 0
    Фильмы 2014 [DVDrip, WEB-DLRip, HDrip] [ 3.13 GB ] Ночь покера / Poker Night | AVO | BDRip (AVC msltel Скачать
    1 | 0
    Фильмы 2014 [DVDrip, WEB-DLRip, HDrip] [ 1.46 GB ] Ночь покера / Poker Night | | HDRip MVO Thorn Скачать
    2 | 0
    Фильмы 2014 [DVDrip, WEB-DLRip, HDrip] [ 2.05 GB ] Ночь покера / Poker Night | | HDRip MVO Thorn Скачать
    1 | 0
    Фильмы 2014 [DVDrip, WEB-DLRip, HDrip] [ 2.18 GB ] Ночь покера / Poker Night | | BDRip-AVC MVO Thorn Скачать
    1 | 0
    T Фильмы 2014 (Звук TS, Cam, VO, DVO) [ 1.36 GB ] Ночь покера / Poker Night | | HDRip, Любительский (двухголосый Ворон Скачать
    1 | 0

    28-11-2019 20:33  


    Отключить вcю реклaмy на сайте, в т.ч. и в плеере онлайн просмотра!

      Дорогой пользователь! Огромная просьба, поблагодарите релизера, оцените раздачу и оставьте свои комментарий, если Вы скачали Ночь покера через торрент бесплатно!!
      Комментировать посты могут только пользователи прошедшие не сложную регистрацию
      Показать сообщения:    


      Ночь покера через торрент
      Скачать бесплатно Ночь покера
      Ночь покера скачать торрент
      Ночь покера смотреть онлайн
      Cкачать фильм Ночь покера бесплатно
      Ночь покера скачать торрент в хорошем качестве
      Ночь покера смотреть онлайн бесплатно в хорошем качестве
      Вы не можете начинать темы
      Вы не можете отвечать на сообщения
      Вы не можете редактировать свои сообщения
      Вы не можете удалять свои сообщения
      Вы не можете голосовать в опросах
      Вы не можете прикреплять файлы к сообщениям
      Вы можете скачивать файлы
      Ночь покера / Poker Night [2014, боевик, триллер, криминал, BDRip 1080p, Любительский [den904, DeadSno] смотреть онлайн, скачать торрент picoco.icu