Доктор Стрэндж

Лицензия

Добыча

Дубляж

Дом дракона

1 сезон

Тор

Дубляж

В эфире

Дубляж

Там, где раки поют

MVO

Властелин колец

1 сезон

Ultimate

pack

Рекомендуем

30

Пиратка

ВАЖНО

ВАЖНО

Ghostwire

Пиратка

jed

RePack

nioh2

RePack

RDR2

RePack

NEED FOR SPEED™ PAYBACK

RePack

скачать торрент

Кинопоиск HD

Острые козырьки 6 сезон

6 сезон

FAR CRY 6

RePack

скачать торрент

Лицензия

скачать торрент

MVO

1

1 сезон

скачать торрент

1 сезон

скачать торрент

Лицензия

  

Святой Винсент / St. Vincent (Тед Мелфи ) [2014, драма, комедия, BDRip 1080p, Любительский (одноголосый) [datynet]

Святой Винсент через торрент piratbit.org

Размер: 13.38 GB | Добавлен: 7 лет 10 мес. назад | Торрент скачан:122 раза
Смотреть онлайн | Скачать   

24-01-2015 19:03 Святой Винсент Скачать торрент  

Святой Винсент / St. Vincent
«Love Thy Neighbor»

Год выпуска:2014
Страна: США
Жанр:драма, комедия
Продолжительность:01:42:26
Перевод:Любительский (одноголосый) [datynet]
Субтитры: русские, английские,
Режиссер:Тед Мелфи

  • В ролях:

    Билл Мюррей (Vincent), Джейден Либерер (Oliver), Мелисса МакКарти (Maggie), Наоми Уоттс (Daka), Крис О’Дауд (Brother Geraghty), Терренс Ховард (Zucko), Кимберли Куинн (Nurse Ana), Ленни Венито (Coach Mitchell), Нэйт Корддри (Terry), Дарио Бароссо (Ocinski), Донна Митчелл (Sandy), Энн Дауд (Shirley, Sunnyside Administrator)
  • Описание:
    Фильм расскажет о 12-летнем мальчике, который, переживая развод своих родителей, заводит дружбу с пожилым соседом, пьющим ветераном войны, любящим азартные игры и проституток. И вот этот нелюдимый и далеко не положительный с виду человек становится наставником парнишки.

  • Мировая премьера:5 сентября 2014

    Качество: BDRip 1080p
    Формат:MKV
    Видео кодек: AVC
    Аудио кодек:AC3, DTS
    Видео: AVC, 1920x1040 (16:9), 7544 kbps, 23,976 fps
    Аудио №1: русский / AC3 / 2.0 / 48 kHz / 192 kbps / 16 bit ||
    Аудио №2: английский / DTS / 5.1 / 48 kHz / 1510 kbps / 24 bit
    Навигация по главам: есть

    Код:

    General
    Unique ID                                : 228103812307842251235680136481052569139 (0xAB9B323DC8D1CE85A0B5295959982E33)
    Complete name                            : D:\Торенты\St.Vincent.2014.Blu.Ray.1080p.CINEMANIA.mkv
    Format                                   : Matroska
    Format version                           : Version 4 / Version 2
    File size                                : 13.4 GiB
    Duration                                 : 1h 42mn
    Overall bit rate                         : 18.7 Mbps
    Movie name                               : Release Group CINEMANIA
    Encoded date                             : UTC 2015-01-24 17:58:01
    Writing application                      : mkvmerge v7.5.0 ('Glass Culture') 64bit built on Jan  4 2015 16:48:44
    Writing library                          : libebml v1.3.1 + libmatroska v1.4.2

    Video
    ID                                       : 1
    Format                                   : AVC
    Format/Info                              : Advanced Video Codec
    Format profile                           : High@L4.1
    Format settings, CABAC                   : Yes
    Format settings, ReFrames                : 4 frames
    Codec ID                                 : V_MPEG4/ISO/AVC
    Duration                                 : 1h 42mn
    Bit rate                                 :  7544 Mbps
    Width                                    : 1 920 pixels
    Height                                   : 1 040 pixels
    Display aspect ratio                     : 16:9
    Frame rate                               : 23.976 fps
    Color space                              : YUV
    Chroma subsampling                       : 4:2:0
    Bit depth                                : 8 bits
    Scan type                                : Progressive
    Bits/(Pixel*Frame)                       : 0.355
    Stream size                              : 11.9 GiB (89%)
    Title                                    : Release Group CINEMANIA
    Writing library                          : x264 core 142 r2431+42 c69a006 tMod [8-bit@all X86_64]
    Encoding settings                        : cabac=1 / ref=4 / deblock=1:-3:-3 / analyse=0x3:0x133 / me=umh / subme=10 / psy=1 / fade_compensate=0.00 / psy_rd=1.03:0.00 / mixed_ref=1 / me_range=48 / chroma_me=1 / trellis=2 / 8x8dct=1 / cqm=0 / deadzone=21,11 / fast_pskip=1 / chroma_qp_offset=-2 / threads=16 / lookahead_threads=2 / sliced_threads=0 / nr=0 / decimate=1 / interlaced=0 / bluray_compat=0 / constrained_intra=0 / fgo=0 / bframes=9 / b_pyramid=2 / b_adapt=2 / b_bias=0 / direct=3 / weightb=1 / open_gop=0 / weightp=2 / keyint=250 / keyint_min=23 / scenecut=40 / intra_refresh=0 / rc_lookahead=150 / rc=2pass / mbtree=0 / bitrate=17000 / ratetol=1.0 / qcomp=0.70 / qpmin=0:0:0 / qpmax=69:69:69 / qpstep=4 / cplxblur=20.0 / qblur=0.5 / vbv_maxrate=50000 / vbv_bufsize=62500 / nal_hrd=none / filler=0 / ip_ratio=1.20 / pb_ratio=1.10 / aq=4:0.75 / aq-sensitivity=10.00 / aq-factor=1.00:1.00:1.00 / aq2=0 / aq3=0
    Language                                 : English
    Default                                  : Yes
    Forced                                   : No

    Audio #1
    ID                                       : 2
    Format                                   : AC-3
    Format/Info                              : Audio Coding 3
    Mode extension                           : CM (complete main)
    Codec ID                                 : A_AC3
    Duration                                 : 1h 42mn
    Bit rate mode                            : Constant
    Bit rate                                 : 192 Kbps
    Channel(s)                               : 2 channels
    Channel positions                        : Front: L R
    Sampling rate                            : 48.0 KHz
    Bit depth                                : 16 bits
    Compression mode                         : Lossy
    Stream size                              : 141 MiB (1%)
    Title                                    : Антон Агапов
    Language                                 : Russian
    Default                                  : Yes
    Forced                                   : Yes

    Audio #2
    ID                                       : 3
    Format                                   : DTS
    Format/Info                              : Digital Theater Systems
    Codec ID                                 : A_DTS
    Duration                                 : 1h 42mn
    Bit rate mode                            : Constant
    Bit rate                                 : 1 510 Kbps
    Channel(s)                               : 6 channels
    Channel positions                        : Front: L C R, Side: L R, LFE
    Sampling rate                            : 48.0 KHz
    Bit depth                                : 24 bits
    Compression mode                         : Lossy
    Stream size                              : 1.08 GiB (8%)
    Language                                 : English
    Default                                  : No
    Forced                                   : No

    Text #1
    ID                                       : 4
    Format                                   : UTF-8
    Codec ID                                 : S_TEXT/UTF8
    Codec ID/Info                            : UTF-8 Plain Text
    Language                                 : Russian
    Default                                  : Yes
    Forced                                   : Yes

    Text #2
    ID                                       : 5
    Format                                   : UTF-8
    Codec ID                                 : S_TEXT/UTF8
    Codec ID/Info                            : UTF-8 Plain Text
    Language                                 : English
    Default                                  : No
    Forced                                   : No

    Menu
    00:00:00.000                             : en:00:00:00.000
    00:07:49.010                             : en:00:07:49.010
    00:14:19.150                             : en:00:14:19.150
    00:18:52.006                             : en:00:18:52.006
    00:25:53.093                             : en:00:25:53.093
    00:33:26.171                             : en:00:33:26.171
    00:41:03.920                             : en:00:41:03.920
    00:47:41.150                             : en:00:47:41.150
    00:56:05.320                             : en:00:56:05.320
    01:03:48.616                             : en:01:03:48.616
    01:09:43.262                             : en:01:09:43.262
    01:14:10.404                             : en:01:14:10.404
    01:20:18.063                             : en:01:20:18.063
    01:28:48.281                             : en:01:28:48.281
    01:34:46.055                             : en:01:34:46.055
    01:37:19.459                             : en:01:37:19.459

    Скриншоты:



  • Скачать Святой Винсент через торрент http://i59.fastpic.ru/big/2015/0124/17/b7aed58fb90126bb9250f0c840920017.jpg Скачать, смотреть онлайн Святой Винсент бесплантно в хорошем качестве Описание:Фильм расскажет о 12-летнем мальчике, который, переживая развод своих родителей, заводит дружбу с пожилым соседом, пьющим ... 9 10 4
    Info! Золотая раздача, скачанное не засчитывается.
    Торрент: Зарегистрирован [2015-01-24 19:03] · скачан: 122 раз
    Статус: T временная
    Размер: 13.38 GB
    Как cкачать? Как скачать Святой Винсент через торрент | UTorrent

    % Раздел Тема Автор DL S | L
    Фильмы 2014 [DVDrip, WEB-DLRip, HDrip] [ 1.42 GB ] Святой Винсент / St. Vincent | DUB | BDRip Twi7ter Скачать
    6 | 0
    T Фильмы 2014 (Звук TS, Cam, VO, DVO) [ 1.38 GB ] Святой Винсент / St. Vincent | | DLRip Ворон Скачать
    1 | 0
    T Фильмы 2014 (Звук TS, Cam, VO, DVO) [ 1.37 GB ] Святой Винсент / St. Vincent | ColdFilm | HDRip Ворон Скачать
    1 | 0
    Фильмы с украинским озвучиванием [ 1.37 GB ] Святой Винсент / Святий Вінсент / St. Vincent | MVO | DLRip killermax2013 Скачать
    1 | 0
    T Фильмы без перевода [ 1.29 GB ] Святой Винсент / St. Vincent | | WEBRip killermax2013 Скачать
    1 | 0

    28-11-2019 20:33  


    Отключить вcю реклaмy на сайте, в т.ч. и в плеере онлайн просмотра!

    01-03-2015 10:28 Святой Винсент Скачать торрент  

    Сэмпл на Я.диске заблокирован.



      Дорогой пользователь! Огромная просьба, поблагодарите релизера, оцените раздачу и оставьте свои комментарий, если Вы скачали Святой Винсент через торрент бесплатно!!
      Комментировать посты могут только пользователи прошедшие не сложную регистрацию
      Показать сообщения:    


      Святой Винсент через торрент
      Скачать бесплатно Святой Винсент
      Святой Винсент скачать торрент
      Святой Винсент смотреть онлайн
      Cкачать фильм Святой Винсент бесплатно
      Святой Винсент скачать торрент в хорошем качестве
      Святой Винсент смотреть онлайн бесплатно в хорошем качестве
      Вы не можете начинать темы
      Вы не можете отвечать на сообщения
      Вы не можете редактировать свои сообщения
      Вы не можете удалять свои сообщения
      Вы не можете голосовать в опросах
      Вы не можете прикреплять файлы к сообщениям
      Вы можете скачивать файлы
      Святой Винсент / St. Vincent [2014, драма, комедия, BDRip 1080p, Любительский [datynet] смотреть онлайн, скачать торрент picoco.icu