Доктор Стрэндж

Лицензия

Добыча

Дубляж

Дом дракона

1 сезон

Тор

Дубляж

В эфире

Дубляж

Там, где раки поют

MVO

Властелин колец

1 сезон

Ultimate

pack

Рекомендуем

30

Пиратка

ВАЖНО

ВАЖНО

Ghostwire

Пиратка

jed

RePack

nioh2

RePack

RDR2

RePack

NEED FOR SPEED™ PAYBACK

RePack

скачать торрент

Кинопоиск HD

Острые козырьки 6 сезон

6 сезон

FAR CRY 6

RePack

скачать торрент

Лицензия

скачать торрент

MVO

1

1 сезон

скачать торрент

1 сезон

скачать торрент

Лицензия

  

Темный принц / Dracula: The Dark Prince (Тео Пирри ) [2013, фэнтези, боевик, BDRip 1080p, Любительский (одноголосый)[barin101]

Темный принц через торрент piratbit.org

Размер: 8.88 GB | Добавлен: 7 лет 10 мес. назад | Торрент скачан:24 раза
Смотреть онлайн | Скачать   

24-01-2015 20:13 Темный принц Скачать торрент  

Темный принц / Dracula: The Dark Prince


Год выпуска:2013
Страна: США
Жанр:фэнтези, боевик
Продолжительность:01:39:38
Перевод:Любительский (одноголосый)[barin101]
Субтитры: русские, английские,
Режиссер:Тео Пирри

  • В ролях:

    Люк Робертс (Dracula), Джон Войт (Van Helsing), Келли Венхам (Alina), Бен Робсон (Lucian), Холли Эрл (Esme), Стефен Хоган (Renfield), Ричард Эштон (Andros), Poppy Corby-Tuech (Demetria), Василеску Валентин (Wrath), Диди Бигелоу (озвучка), Ингрид Бису (Minerva), Джон Блох (Izrael)
  • Описание:
    В поисках Светоносного, Дракула пересекается с красивым крестоносцем по имени Алина, которая имеет замечательное сходство с убитой невестой. Один взгляд на нее и Дракула. ..

  • Мировая премьера:15 октября 2013

    Качество: BDRip 1080p
    Формат:MKV
    Видео кодек: AVC
    Аудио кодек:AC3, DTS
    Видео: AVC, 1920x1080 (16:9), 11100 kbps, 23,976 fps, 0,222 bpp
    Аудио №1: русский / AC3 / 2.0 / 48 kHz / 192 kbps / 16 bit ||
    Аудио №2: английский / DTS / 5.1 / 48 kHz / 1510 kbps / 24 bit

    Код:

    General
    Unique ID                                : 205700073468820829282470566833955358401 (0x9AC064A291FE02849556C527394546C1)
    Complete name                            : D:\Торенты\Dracula.The.Dark.Prince.2013.Blu.Ray.1080p.CINEMANIA.mkv
    Format                                   : Matroska
    Format version                           : Version 4 / Version 2
    File size                                : 8.88 GiB
    Duration                                 : 1h 39mn
    Overall bit rate                         : 12.8 Mbps
    Movie name                               : Release Group CINEMANIA
    Encoded date                             : UTC 2015-01-24 16:21:30
    Writing application                      : mkvmerge v7.5.0 ('Glass Culture') 64bit built on Jan  4 2015 16:48:44
    Writing library                          : libebml v1.3.1 + libmatroska v1.4.2

    Video
    ID                                       : 1
    Format                                   : AVC
    Format/Info                              : Advanced Video Codec
    Format profile                           : High@L4.1
    Format settings, CABAC                   : Yes
    Format settings, ReFrames                : 4 frames
    Codec ID                                 : V_MPEG4/ISO/AVC
    Duration                                 : 1h 39mn
    Bit rate                                 :  11100Mbps
    Width                                    : 1 920 pixels
    Height                                   : 1 080 pixels
    Display aspect ratio                     : 16:9
    Frame rate                               : 23.976 fps
    Color space                              : YUV
    Chroma subsampling                       : 4:2:0
    Bit depth                                : 8 bits
    Scan type                                : Progressive
    Bits/(Pixel*Frame)                       : 0.222
    Stream size                              : 7.52 GiB (85%)
    Title                                    : Release Group CINEMANIA
    Writing library                          : x264 core 140 r2377 1ca7bb9
    Encoding settings                        : cabac=1 / ref=4 / deblock=1:0:0 / analyse=0x3:0x113 / me=umh / subme=8 / psy=1 / psy_rd=1.00:0.00 / mixed_ref=1 / me_range=16 / chroma_me=1 / trellis=1 / 8x8dct=1 / cqm=0 / deadzone=21,11 / fast_pskip=1 / chroma_qp_offset=-2 / threads=6 / lookahead_threads=1 / sliced_threads=0 / nr=0 / decimate=1 / interlaced=0 / bluray_compat=0 / constrained_intra=0 / bframes=3 / b_pyramid=2 / b_adapt=2 / b_bias=0 / direct=3 / weightb=1 / open_gop=0 / weightp=2 / keyint=250 / keyint_min=23 / scenecut=40 / intra_refresh=0 / rc_lookahead=50 / rc=2pass / mbtree=1 / bitrate=11060 / ratetol=1.0 / qcomp=0.60 / qpmin=0 / qpmax=69 / qpstep=4 / cplxblur=20.0 / qblur=0.5 / ip_ratio=1.40 / aq=1:1.00
    Language                                 : English
    Default                                  : Yes
    Forced                                   : No

    Audio #1
    ID                                       : 2
    Format                                   : AC-3
    Format/Info                              : Audio Coding 3
    Mode extension                           : CM (complete main)
    Codec ID                                 : A_AC3
    Duration                                 : 1h 39mn
    Bit rate mode                            : Constant
    Bit rate                                 : 192 Kbps
    Channel(s)                               : 2 channels
    Channel positions                        : Front: L R
    Sampling rate                            : 48.0 KHz
    Bit depth                                : 16 bits
    Compression mode                         : Lossy
    Stream size                              : 137 MiB (2%)
    Title                                    : Barin101
    Language                                 : Russian
    Default                                  : Yes
    Forced                                   : Yes

    Audio #2
    ID                                       : 3
    Format                                   : DTS
    Format/Info                              : Digital Theater Systems
    Codec ID                                 : A_DTS
    Duration                                 : 1h 39mn
    Bit rate mode                            : Constant
    Bit rate                                 : 1 510 Kbps
    Channel(s)                               : 6 channels
    Channel positions                        : Front: L C R, Side: L R, LFE
    Sampling rate                            : 48.0 KHz
    Bit depth                                : 24 bits
    Compression mode                         : Lossy
    Stream size                              : 1.05 GiB (12%)
    Language                                 : English
    Default                                  : No
    Forced                                   : No

    Text #1
    ID                                       : 4
    Format                                   : UTF-8
    Codec ID                                 : S_TEXT/UTF8
    Codec ID/Info                            : UTF-8 Plain Text
    Language                                 : Russian
    Default                                  : Yes
    Forced                                   : Yes

    Text #2
    ID                                       : 5
    Format                                   : UTF-8
    Codec ID                                 : S_TEXT/UTF8
    Codec ID/Info                            : UTF-8 Plain Text
    Language                                 : English
    Default                                  : No
    Forced                                   : No

    Скриншоты:



  • Скачать Темный принц через торрент http://i67.fastpic.ru/big/2015/0125/88/789d496b5feb2fef19580df10c0f8288.png Скачать, смотреть онлайн Темный принц бесплантно в хорошем качестве Описание:В поисках Светоносного, Дракула пересекается с красивым крестоносцем по имени Алина, которая имеет замечательное сходство с убитой ... 5.5 10 2
    Торрент: Зарегистрирован [2015-01-24 20:13] · скачан: 24 раз
    Статус: T временная
    Размер: 8.88 GB
    Как cкачать? Как скачать Темный принц через торрент | UTorrent

    % Раздел Тема Автор DL S | L
    T Фильмы 2013 (Звук TS, Cam, VO, DVO) [ 1.37 GB ] Темный принц / Dracula: The Dark Prince | | HDRip, Любительский (одноголосый Ворон Скачать
    1 | 0

    28-11-2019 20:33  


    Отключить вcю реклaмy на сайте, в т.ч. и в плеере онлайн просмотра!

      Дорогой пользователь! Огромная просьба, поблагодарите релизера, оцените раздачу и оставьте свои комментарий, если Вы скачали Темный принц через торрент бесплатно!!
      Комментировать посты могут только пользователи прошедшие не сложную регистрацию
      Показать сообщения:    


      Темный принц через торрент
      Скачать бесплатно Темный принц
      Темный принц скачать торрент
      Темный принц смотреть онлайн
      Cкачать фильм Темный принц бесплатно
      Темный принц скачать торрент в хорошем качестве
      Темный принц смотреть онлайн бесплатно в хорошем качестве
      Вы не можете начинать темы
      Вы не можете отвечать на сообщения
      Вы не можете редактировать свои сообщения
      Вы не можете удалять свои сообщения
      Вы не можете голосовать в опросах
      Вы не можете прикреплять файлы к сообщениям
      Вы можете скачивать файлы
      Темный принц / Dracula: The Dark Prince [2013, фэнтези, боевик, BDRip 1080p, Любительский [barin101] смотреть онлайн, скачать торрент picoco.icu