Доктор Стрэндж

Лицензия

Добыча

Дубляж

Уэнсдэй

1 сезон

Тор

Дубляж

В эфире

Дубляж

Там, где раки поют

MVO

Властелин колец

1 сезон

Deluxe

pack

Рекомендуем

30

Пиратка

ВАЖНО

ВАЖНО

Ghostwire

Пиратка

jed

RePack

nioh2

RePack

RDR2

RePack

NEED FOR SPEED™ PAYBACK

RePack

скачать торрент

Кинопоиск HD

Острые козырьки 6 сезон

6 сезон

FAR CRY 6

RePack

скачать торрент

Лицензия

скачать торрент

MVO

1

1 сезон

скачать торрент

1 сезон

скачать торрент

Лицензия

  

Любовь моей жизни / Love of my Life (Майкл Бадд ) [2013, ужасы, триллер, BDRip 1080p, Любительский (двухголосый) [den904, DeadSno]

Любовь моей жизни через торрент piratbit.org

Размер: 4.45 GB | Добавлен: 7 лет 10 мес. назад | Торрент скачан:13 раз
Смотреть онлайн | Скачать   

26-01-2015 14:24 Любовь моей жизни Скачать торрент  

Любовь моей жизни / Love of my Life

Год выпуска: 2013
Страна: Австралия
Жанр: ужасы, триллер
Продолжительность: 01:35:45
Перевод: Любительский (двухголосый) [den904, DeadSno]
Субтитры: русские,
Режиссер: Майкл Бадд
В ролях: Питер О’Брайэн (Thomas), Бель Делиа (Nicole), Майкл Бадд (Reggie), Matt James (Matt), Даэрмид Хайденрик (Julius), Isaro Kayitesi (Keira), Аманда Джермин (Anna (scenes deleted)), Рипли Худ (Virgil), Tom Pelik (James (scenes deleted)), George Fayad (Judge), Kathryn Wenborn (Unhappy Girl), Джейхун Догру (Corner Man)
Описание:
Придя в себя, обычный молодой парень осознает, что он привязан к кушетке в палате какого-то заброшенного госпиталя. Вскоре появляется человек в медицинском халате и маске, скрывающей лицо. Этот хирург сообщает парню, что тому придется принять участие в некоем эксперименте – и вскоре герой видит на экране монитора, что его возлюбленная заперта в каком-то похожем на морг помещении. Следующие часы станут для парня настоящим кошмаром...
Рейтинг:

Качество: BDRip 1080p
Формат: MKV
Видео кодек: AVC
Аудио кодек:AC3, DTS
Видео: AVC, 1920x1080 (16:9), 5370 kbps, 23,976 fps, 0,108 bpp
Аудио №1: русский / AC3 / 2.0 / 48 kHz / 192 kbps / 16 bit ||
Аудио №2: английский / DTS / 5.1 / 48 kHz / 960 kbps / 24 bit
Навигация по главам: есть

Код:

General
Unique ID                                : 192849140287806593867474420501722147872 (0x911564B60E78A048908D116D5D9BAC20)
Complete name                            : D:\Торенты\Love.of.my.Life.2013.Blu.Ray.1080p.CINEMANIA.mkv
Format                                   : Matroska
Format version                           : Version 4 / Version 2
File size                                : 4.45 GiB
Duration                                 : 1h 35mn
Overall bit rate                         : 6 654 Kbps
Movie name                               : Release Group CINEMANIA
Encoded date                             : UTC 2015-01-25 23:00:00
Writing application                      : mkvmerge v7.5.0 ('Glass Culture') 64bit built on Jan  4 2015 16:48:44
Writing library                          : libebml v1.3.1 + libmatroska v1.4.2

Video
ID                                       : 1
Format                                   : AVC
Format/Info                              : Advanced Video Codec
Format profile                           : High@L4.1
Format settings, CABAC                   : Yes
Format settings, ReFrames                : 4 frames
Codec ID                                 : V_MPEG4/ISO/AVC
Duration                                 : 1h 35mn
Bit rate                                 :  5370 Kbps
Width                                    : 1 920 pixels
Height                                   : 1 080 pixels
Display aspect ratio                     : 16:9
Frame rate                               : 23.976 fps
Color space                              : YUV
Chroma subsampling                       : 4:2:0
Bit depth                                : 8 bits
Scan type                                : Progressive
Bits/(Pixel*Frame)                       : 0.108
Stream size                              : 3.59 GiB (81%)
Title                                    : Release Group CINEMANIA
Writing library                          : x264 core 142 r2479 dd79a61
Encoding settings                        : cabac=1 / ref=4 / deblock=1:-1:-1 / analyse=0x3:0x113 / me=umh / subme=7 / psy=1 / psy_rd=1.00:0.00 / mixed_ref=1 / me_range=16 / chroma_me=1 / trellis=1 / 8x8dct=1 / cqm=0 / deadzone=21,11 / fast_pskip=0 / chroma_qp_offset=-2 / threads=10 / lookahead_threads=1 / sliced_threads=0 / nr=0 / decimate=1 / interlaced=0 / bluray_compat=0 / constrained_intra=0 / bframes=3 / b_pyramid=2 / b_adapt=1 / b_bias=0 / direct=3 / weightb=1 / open_gop=0 / weightp=2 / keyint=250 / keyint_min=23 / scenecut=40 / intra_refresh=0 / rc_lookahead=40 / rc=crf / mbtree=1 / crf=20.0 / qcomp=0.60 / qpmin=0 / qpmax=69 / qpstep=4 / ip_ratio=1.40 / aq=1:1.00
Default                                  : Yes
Forced                                   : No

Audio #1
ID                                       : 2
Format                                   : AC-3
Format/Info                              : Audio Coding 3
Mode extension                           : CM (complete main)
Codec ID                                 : A_AC3
Duration                                 : 1h 35mn
Bit rate mode                            : Constant
Bit rate                                 : 192 Kbps
Channel(s)                               : 2 channels
Channel positions                        : Front: L R
Sampling rate                            : 48.0 KHz
Bit depth                                : 16 bits
Compression mode                         : Lossy
Stream size                              : 131 MiB (3%)
Title                                    : Влад и Снежинка
Language                                 : Russian
Default                                  : Yes
Forced                                   : Yes

Audio #2
ID                                       : 3
Format                                   : DTS
Format/Info                              : Digital Theater Systems
Codec ID                                 : A_DTS
Duration                                 : 1h 35mn
Bit rate mode                            : Constant
Bit rate                                 : 960 Kbps
Channel(s)                               : 6 channels
Channel positions                        : Front: L C R, Side: L R, LFE
Sampling rate                            : 48.0 KHz
Bit depth                                : 24 bits
Compression mode                         : Lossy
Stream size                              : 657 MiB (14%)
Language                                 : English
Default                                  : No
Forced                                   : No

Text
ID                                       : 4
Format                                   : UTF-8
Codec ID                                 : S_TEXT/UTF8
Codec ID/Info                            : UTF-8 Plain Text
Language                                 : Russian
Default                                  : Yes
Forced                                   : Yes

Menu
00:00:00.000                             : en:00:00:00.000
00:09:59.974                             : en:00:09:59.974
00:19:59.990                             : en:00:19:59.990
00:29:59.965                             : en:00:29:59.965
00:39:59.981                             : en:00:39:59.981
00:49:59.997                             : en:00:49:59.997
00:59:59.971                             : en:00:59:59.971
01:09:59.987                             : en:01:09:59.987
01:19:59.962                             : en:01:19:59.962

!Ворон писал(а):


Временно. Лучшего пока нет в сети рипа.



Скачать Любовь моей жизни через торрент http://i64.fastpic.ru/big/2015/0126/96/21de2fba88bd7f15e65ac29934267396.jpg Скачать, смотреть онлайн Любовь моей жизни бесплантно в хорошем качестве Описание: Придя в себя, обычный молодой парень осознает, что он привязан к кушетке в палате какого-то заброшенного госпиталя. Вскоре ... 10 10 4
Торрент: Зарегистрирован [2015-01-26 14:24] · скачан: 13 раз
Статус: T временная
Размер: 4.45 GB
Как cкачать? Как скачать Любовь моей жизни через торрент | UTorrent

% Раздел Тема Автор DL S | L
T Фильмы 2013 (Звук TS, Cam, VO, DVO) [ 1.36 GB ] Любовь моей жизни / Love of my Life | | HDRip, Любительский (двухголосый Ворон Скачать
1 | 0
T Фильмы 2013 (Звук TS, Cam, VO, DVO) [ 1.16 GB ] Любовь моей жизни / Love of my Life | Любовь моей жизни / Love of my Life | DVDRip, Любительский (двухголосый GEKADOL Скачать
1 | 0

28-11-2019 20:33  


Отключить вcю реклaмy на сайте, в т.ч. и в плеере онлайн просмотра!

    Дорогой пользователь! Огромная просьба, поблагодарите релизера, оцените раздачу и оставьте свои комментарий, если Вы скачали Любовь моей жизни через торрент бесплатно!!
    Комментировать посты могут только пользователи прошедшие не сложную регистрацию
    Показать сообщения:    


    Любовь моей жизни через торрент
    Скачать бесплатно Любовь моей жизни
    Любовь моей жизни скачать торрент
    Любовь моей жизни смотреть онлайн
    Cкачать фильм Любовь моей жизни бесплатно
    Любовь моей жизни скачать торрент в хорошем качестве
    Любовь моей жизни смотреть онлайн бесплатно в хорошем качестве
    Вы не можете начинать темы
    Вы не можете отвечать на сообщения
    Вы не можете редактировать свои сообщения
    Вы не можете удалять свои сообщения
    Вы не можете голосовать в опросах
    Вы не можете прикреплять файлы к сообщениям
    Вы можете скачивать файлы
    Любовь моей жизни / Love of my Life [2013, ужасы, триллер, BDRip 1080p, Любительский [den904, DeadSno] смотреть онлайн, скачать торрент picoco.icu