Доктор Стрэндж

Лицензия

Добыча

Дубляж

Уэнсдэй

1 сезон

Тор

Дубляж

В эфире

Дубляж

Там, где раки поют

MVO

Властелин колец

1 сезон

Deluxe

pack

Рекомендуем

30

Пиратка

ВАЖНО

ВАЖНО

Ghostwire

Пиратка

jed

RePack

nioh2

RePack

RDR2

RePack

NEED FOR SPEED™ PAYBACK

RePack

скачать торрент

Кинопоиск HD

Острые козырьки 6 сезон

6 сезон

FAR CRY 6

RePack

скачать торрент

Лицензия

скачать торрент

MVO

1

1 сезон

скачать торрент

1 сезон

скачать торрент

Лицензия

  

Исчезновение Элеанор Ригби: Он / The Disappearance of Eleanor Rigby: Him (Нед Бенсон ) [2013, драма, мелодрама, BDRip 1080p, Любительский (одноголосый) [datynet]

Исчезновение Элеанор Ригби: Он через торрент piratbit.org

Размер: 7.5 GB | Добавлен: 7 лет 10 мес. назад | Торрент скачан:53 раза
Смотреть онлайн | Скачать   

29-01-2015 15:51 Исчезновение Элеанор Ригби: Он Скачать торрент  

Исчезновение Элеанор Ригби: Он / The Disappearance of Eleanor Rigby: Him

Год выпуска: 2013
Страна: США
Жанр: драма, мелодрама
Продолжительность: 01:36:09
Перевод: Любительский (одноголосый) [datynet]
Субтитры: русские, английские, английские (SDH),
Режиссер: Нед Бенсон
В ролях: Джессика Честейн (Eleanor Rigby), Джеймс МакЭвой (Conor Ludlow), Виола Дэвис (Professor Lillian Friedman), Райан Игголд (Guy from Club), Арчи Панджаби, Билл Хейдер (Stuart), Киран Хайндс (Spencer Ludlow), Уильям Хёрт (Julian Rigby), Джесс Вейкслер (Katy Rigby), Кэтрин Уотерстон (Charlie), Изабель Юппер (Mary Rigby), Нина Арианда (Alexis)
Описание:
Первая часть дилогии о сложных взаимоотношениях супругов в кризисный период их семейной жизни. История будет показана с точки зрения мужчины.
Действие разворачивается в Нью-Йорке. История мужа - владельца ресторана его и жены, которая решает продолжить учебу в колледже.
Рейтинг:

MPAA: R - Лицам до 17 лет обязательно присутствие взрослого
Качество: BDRip 1080p
Формат: MKV
Видео кодек: AVC
Аудио кодек:AC3
Видео: AVC, 1920x802 (2.40:1), 10043 kbps, 23,976 fps, 0,272 bpp
Аудио №1: русский / AC3 / 5.1 / 48 kHz / 448 kbps / 16 bit ||
Аудио №2: английский / AC3 / 5.1 / 48 kHz / 448 kbps / 16 bit
Навигация по главам: есть

Код:

General
Unique ID                                : 189401967194110874118184640581517589871 (0x8E7D7DF4A98515CE82EF6B8F64D23D6F)
Complete name                            : D:\Торенты\The.Disappearance.of.Eleanor.Rigby.Him.2013.Blu.Ray.1080p.CINEMANIA.mkv
Format                                   : Matroska
Format version                           : Version 4 / Version 2
File size                                : 7.50 GiB
Duration                                 : 1h 36mn
Overall bit rate                         : 11.2 Mbps
Movie name                               : Release Group CINEMANIA
Encoded date                             : UTC 2015-01-29 14:02:37
Writing application                      : mkvmerge v7.5.0 ('Glass Culture') 64bit built on Jan  4 2015 16:48:44
Writing library                          : libebml v1.3.1 + libmatroska v1.4.2

Video
ID                                       : 1
Format                                   : AVC
Format/Info                              : Advanced Video Codec
Format profile                           : High@L4.1
Format settings, CABAC                   : Yes
Format settings, ReFrames                : 5 frames
Codec ID                                 : V_MPEG4/ISO/AVC
Duration                                 : 1h 36mn
Bit rate                                 : 10.0 Mbps
Width                                    : 1 920 pixels
Height                                   : 802 pixels
Display aspect ratio                     : 2.40:1
Frame rate                               : 23.976 fps
Color space                              : YUV
Chroma subsampling                       : 4:2:0
Bit depth                                : 8 bits
Scan type                                : Progressive
Bits/(Pixel*Frame)                       : 0.272
Stream size                              : 6.75 GiB (90%)
Title                                    : Release Group CINEMANIA
Writing library                          : x264 core 133 r2334 a3ac64b
Encoding settings                        : cabac=1 / ref=5 / deblock=1:-3:-3 / analyse=0x3:0x113 / me=umh / subme=11 / psy=1 / psy_rd=1.05:0.05 / mixed_ref=1 / me_range=32 / chroma_me=1 / trellis=2 / 8x8dct=1 / cqm=0 / deadzone=21,11 / fast_pskip=0 / chroma_qp_offset=-3 / threads=12 / lookahead_threads=2 / sliced_threads=0 / nr=0 / decimate=1 / interlaced=0 / bluray_compat=0 / constrained_intra=0 / bframes=8 / b_pyramid=2 / b_adapt=2 / b_bias=0 / direct=1 / weightb=1 / open_gop=0 / weightp=2 / keyint=250 / keyint_min=23 / scenecut=40 / intra_refresh=0 / rc_lookahead=40 / rc=crf / mbtree=0 / crf=17.0 / qcomp=0.65 / qpmin=0 / qpmax=69 / qpstep=4 / vbv_maxrate=40000 / vbv_bufsize=30000 / crf_max=0.0 / nal_hrd=none / ip_ratio=1.30 / pb_ratio=1.20 / aq=1:0.80
Language                                 : English
Default                                  : Yes
Forced                                   : No

Audio #1
ID                                       : 2
Format                                   : AC-3
Format/Info                              : Audio Coding 3
Mode extension                           : CM (complete main)
Codec ID                                 : A_AC3
Duration                                 : 1h 36mn
Bit rate mode                            : Constant
Bit rate                                 : 448 Kbps
Channel(s)                               : 6 channels
Channel positions                        : Front: L C R, Side: L R, LFE
Sampling rate                            : 48.0 KHz
Bit depth                                : 16 bits
Compression mode                         : Lossy
Stream size                              : 308 MiB (4%)
Title                                    : Антон Агапов
Language                                 : Russian
Default                                  : Yes
Forced                                   : Yes

Audio #2
ID                                       : 3
Format                                   : AC-3
Format/Info                              : Audio Coding 3
Mode extension                           : CM (complete main)
Codec ID                                 : A_AC3
Duration                                 : 1h 36mn
Bit rate mode                            : Constant
Bit rate                                 : 448 Kbps
Channel(s)                               : 6 channels
Channel positions                        : Front: L C R, Side: L R, LFE
Sampling rate                            : 48.0 KHz
Bit depth                                : 16 bits
Compression mode                         : Lossy
Stream size                              : 308 MiB (4%)
Language                                 : English
Default                                  : No
Forced                                   : No

Text #1
ID                                       : 4
Format                                   : UTF-8
Codec ID                                 : S_TEXT/UTF8
Codec ID/Info                            : UTF-8 Plain Text
Language                                 : Russian
Default                                  : Yes
Forced                                   : Yes

Text #2
ID                                       : 5
Format                                   : UTF-8
Codec ID                                 : S_TEXT/UTF8
Codec ID/Info                            : UTF-8 Plain Text
Language                                 : English
Default                                  : No
Forced                                   : No

Text #3
ID                                       : 6
Format                                   : UTF-8
Codec ID                                 : S_TEXT/UTF8
Codec ID/Info                            : UTF-8 Plain Text
Title                                    : SDH
Language                                 : English
Default                                  : No
Forced                                   : No

Menu
00:00:00.000                             : en:00:00:00.000
00:04:48.914                             : en:00:04:48.914
00:11:19.637                             : en:00:11:19.637
00:18:16.012                             : en:00:18:16.012
00:24:39.978                             : en:00:24:39.978
00:32:30.240                             : en:00:32:30.240
00:40:10.408                             : en:00:40:10.408
00:44:30.501                             : en:00:44:30.501
00:48:40.793                             : en:00:48:40.793
00:53:52.521                             : en:00:53:52.521
01:00:37.551                             : en:01:00:37.551
01:07:04.103                             : en:01:07:04.103
01:12:26.801                             : en:01:12:26.801
01:18:21.363                             : en:01:18:21.363
01:26:11.666                             : en:01:26:11.666
01:30:13.491                             : en:01:30:13.491




Скачать Исчезновение Элеанор Ригби: Он через торрент http://i60.fastpic.ru/big/2015/0129/b3/fd9d79bf7b92fb92c091adc44b8d09b3.jpg Скачать, смотреть онлайн Исчезновение Элеанор Ригби: Он бесплантно в хорошем качестве Описание: Первая часть дилогии о сложных взаимоотношениях супругов в кризисный период их семейной жизни. История будет показана с точки ... 10 10 3
Торрент: Зарегистрирован [2015-01-29 15:51] · скачан: 53 раз
Статус: T временная
Размер: 7.5 GB
Как cкачать? Как скачать Исчезновение Элеанор Ригби: Он через торрент | UTorrent

% Раздел Тема Автор DL S | L
Фильмы [HD 720p, 1080p] (Хороший звук DUB, MVO) [ 11.62 GB ] Исчезновение Элеанор Ригби / The Disappearance of Eleanor Rigby: Them | Дубляж - | 1080p, Дубляж - [НТВ+ Ворон Скачать
1 | 0
Фильмы 2014 [DVDrip, WEB-DLRip, HDrip] [ 1.37 GB ] Исчезновение Элеанор Ригби / The Disappearance of Eleanor Rigby: Them | Дубляж - | HDRip, Дубляж - [НТВ+ Ворон Скачать
1 | 0
T Фильмы 2013 (Звук TS, Cam, VO, DVO) [ 1.34 GB ] Исчезновение Элеанор Ригби: Он / The Disappearance of Eleanor Rigby: Him | | BDRip, Любительский (одноголосый Ворон Скачать
1 | 0

28-11-2019 20:33  


Отключить вcю реклaмy на сайте, в т.ч. и в плеере онлайн просмотра!

    Дорогой пользователь! Огромная просьба, поблагодарите релизера, оцените раздачу и оставьте свои комментарий, если Вы скачали Исчезновение Элеанор Ригби: Он через торрент бесплатно!!
    Комментировать посты могут только пользователи прошедшие не сложную регистрацию
    Показать сообщения:    


    Исчезновение Элеанор Ригби: Он через торрент
    Скачать бесплатно Исчезновение Элеанор Ригби: Он
    Исчезновение Элеанор Ригби: Он скачать торрент
    Исчезновение Элеанор Ригби: Он смотреть онлайн
    Cкачать фильм Исчезновение Элеанор Ригби: Он бесплатно
    Исчезновение Элеанор Ригби: Он скачать торрент в хорошем качестве
    Исчезновение Элеанор Ригби: Он смотреть онлайн бесплатно в хорошем качестве
    Вы не можете начинать темы
    Вы не можете отвечать на сообщения
    Вы не можете редактировать свои сообщения
    Вы не можете удалять свои сообщения
    Вы не можете голосовать в опросах
    Вы не можете прикреплять файлы к сообщениям
    Вы можете скачивать файлы
    Исчезновение Элеанор Ригби: Он / The Disappearance of Eleanor Rigby: Him [2013, драма, мелодрама, BDRip 1080p, Любительский [datynet] смотреть онлайн, скачать торрент picoco.icu