Доктор Стрэндж

Лицензия

Добыча

Дубляж

Уэнсдэй

1 сезон

Тор

Дубляж

В эфире

Дубляж

Там, где раки поют

MVO

Властелин колец

1 сезон

Deluxe

pack

Рекомендуем

30

Пиратка

ВАЖНО

ВАЖНО

Ghostwire

Пиратка

jed

RePack

nioh2

RePack

RDR2

RePack

NEED FOR SPEED™ PAYBACK

RePack

скачать торрент

Кинопоиск HD

Острые козырьки 6 сезон

6 сезон

FAR CRY 6

RePack

скачать торрент

Лицензия

скачать торрент

MVO

1

1 сезон

скачать торрент

1 сезон

скачать торрент

Лицензия

  

Лемон Три Пасседж / Lemon Tree Passage (Дэвид Кэмпбелл ) [2013, ужасы, триллер, детектив, BDRip 1080p, Любительский (двухголосый) [den904, DeadSno]

Лемон Три Пасседж через торрент piratbit.org

Размер: 6.82 GB | Добавлен: 7 лет 10 мес. назад | Торрент скачан:88 раз
Смотреть онлайн | Скачать   

29-01-2015 15:55 Лемон Три Пасседж Скачать торрент  

Лемон Три Пасседж / Lemon Tree Passage

Год выпуска: 2013
Страна: Австралия
Жанр: ужасы, триллер, детектив
Продолжительность: 01:23:30
Перевод: Любительский (двухголосый) [den904, DeadSno]
Субтитры: русские,
Режиссер: Дэвид Кэмпбелл
В ролях: Джессика Тоуви (Maya), Николас Ганн (Sam), Пиппа Блэк (Amelia), Тим Филлиппс (Geordie), Эндрю Райан (Oscar), Тим Пакок (Toby), Пьера Форде (Brianna), Dean Kirkright (Gang Member)
Описание:
Группа туристов узнает о призраке, который появляется в зеркале заднего автомобиля, несущегося на высокой скорости. Они решают промчаться по Лемон Три Пасседж, дороге проходящей в глубине густых лесов. Но их ликование сменяется ужасом, когда пассажиры автомобиля начинают исчезать один за другим...
Рейтинг:

Качество: BDRip 1080p
Формат: MKV
Видео кодек: AVC
Аудио кодек:AC3, DTS
Видео: AVC, 1920x816 (2.35:1), 9737 kbps, 24 fps, 0,259 bpp
Аудио №1: русский / AC3 / 5.1 / 48 kHz / 448 kbps / 16 bit ||
Аудио №2: английский / DTS / 5.1 / 48 kHz / 1510 kbps / 24 bit
Навигация по главам: есть

Код:

General
Unique ID                                : 185443744092095130996077838795638302155 (0x8B832A7D5022284D9C83AB255113E5CB)
Complete name                            : D:\Торенты\Lemon.Tree.Passage.2013.Blu.Ray.1080p.CINEMANIA.mkv
Format                                   : Matroska
Format version                           : Version 4 / Version 2
File size                                : 6.82 GiB
Duration                                 : 1h 23mn
Overall bit rate                         : 11.7 Mbps
Movie name                               : Release Group CINEMANIA
Encoded date                             : UTC 2015-01-29 12:23:59
Writing application                      : mkvmerge v7.5.0 ('Glass Culture') 64bit built on Jan  4 2015 16:48:44
Writing library                          : libebml v1.3.1 + libmatroska v1.4.2

Video
ID                                       : 1
Format                                   : AVC
Format/Info                              : Advanced Video Codec
Format profile                           : High@L4.1
Format settings, CABAC                   : Yes
Format settings, ReFrames                : 5 frames
Codec ID                                 : V_MPEG4/ISO/AVC
Duration                                 : 1h 23mn
Bit rate                                 : 9 737 Kbps
Width                                    : 1 920 pixels
Height                                   : 816 pixels
Display aspect ratio                     : 2.35:1
Frame rate                               : 24.000 fps
Color space                              : YUV
Chroma subsampling                       : 4:2:0
Bit depth                                : 8 bits
Scan type                                : Progressive
Bits/(Pixel*Frame)                       : 0.259
Stream size                              : 5.54 GiB (81%)
Title                                    : Release Group CINEMANIA
Writing library                          : x264 core 144 r2525 40bb568
Encoding settings                        : cabac=1 / ref=5 / deblock=1:-3:-3 / analyse=0x3:0x113 / me=umh / subme=11 / psy=1 / psy_rd=1.05:0.00 / mixed_ref=1 / me_range=36 / chroma_me=1 / trellis=2 / 8x8dct=1 / cqm=0 / deadzone=21,11 / fast_pskip=0 / chroma_qp_offset=-2 / threads=12 / lookahead_threads=3 / sliced_threads=0 / nr=0 / decimate=0 / interlaced=0 / bluray_compat=0 / constrained_intra=0 / bframes=10 / b_pyramid=2 / b_adapt=2 / b_bias=0 / direct=3 / weightb=1 / open_gop=0 / weightp=2 / keyint=250 / keyint_min=24 / scenecut=40 / intra_refresh=0 / rc=2pass / mbtree=0 / bitrate=9737 / ratetol=1.0 / qcomp=0.60 / qpmin=0 / qpmax=69 / qpstep=4 / cplxblur=20.0 / qblur=0.5 / ip_ratio=1.40 / pb_ratio=1.30 / aq=1:0.60
Language                                 : English
Default                                  : Yes
Forced                                   : No

Audio #1
ID                                       : 2
Format                                   : AC-3
Format/Info                              : Audio Coding 3
Mode extension                           : CM (complete main)
Codec ID                                 : A_AC3
Duration                                 : 1h 23mn
Bit rate mode                            : Constant
Bit rate                                 : 448 Kbps
Channel(s)                               : 6 channels
Channel positions                        : Front: L C R, Side: L R, LFE
Sampling rate                            : 48.0 KHz
Bit depth                                : 16 bits
Compression mode                         : Lossy
Stream size                              : 268 MiB (4%)
Title                                    : Влад и Снежинка
Language                                 : Russian
Default                                  : Yes
Forced                                   : Yes

Audio #2
ID                                       : 3
Format                                   : DTS
Format/Info                              : Digital Theater Systems
Codec ID                                 : A_DTS
Duration                                 : 1h 23mn
Bit rate mode                            : Constant
Bit rate                                 : 1 510 Kbps
Channel(s)                               : 6 channels
Channel positions                        : Front: L C R, Side: L R, LFE
Sampling rate                            : 48.0 KHz
Bit depth                                : 24 bits
Compression mode                         : Lossy
Stream size                              : 902 MiB (13%)
Language                                 : English
Default                                  : No
Forced                                   : No

Text
ID                                       : 4
Format                                   : UTF-8
Codec ID                                 : S_TEXT/UTF8
Codec ID/Info                            : UTF-8 Plain Text
Language                                 : Russian
Default                                  : Yes
Forced                                   : Yes

Menu
00:00:00.000                             : en:00:00:00.000
00:08:53.458                             : en:00:08:53.458
00:15:17.333                             : en:00:15:17.333
00:23:41.708                             : en:00:23:41.708
00:31:00.792                             : en:00:31:00.792
00:35:08.875                             : en:00:35:08.875
00:42:21.917                             : en:00:42:21.917
00:52:58.167                             : en:00:52:58.167
01:02:22.875                             : en:01:02:22.875
01:12:24.125                             : en:01:12:24.125




Скачать Лемон Три Пасседж через торрент http://i59.fastpic.ru/big/2015/0129/06/a0ba5047aa138bb13119ba16218f8d06.jpg Скачать, смотреть онлайн Лемон Три Пасседж бесплантно в хорошем качестве Описание: Группа туристов узнает о призраке, который появляется в зеркале заднего автомобиля, несущегося на высокой скорости. Они решают ... 8.9 10 7
Info! Золотая раздача, скачанное не засчитывается.
Торрент: Зарегистрирован [2015-01-29 15:55] · скачан: 88 раз
Статус: T временная
Размер: 6.82 GB
Как cкачать? Как скачать Лемон Три Пасседж через торрент | UTorrent

28-11-2019 20:33  


Отключить вcю реклaмy на сайте, в т.ч. и в плеере онлайн просмотра!

    Дорогой пользователь! Огромная просьба, поблагодарите релизера, оцените раздачу и оставьте свои комментарий, если Вы скачали Лемон Три Пасседж через торрент бесплатно!!
    Комментировать посты могут только пользователи прошедшие не сложную регистрацию
    Показать сообщения:    


    Лемон Три Пасседж через торрент
    Скачать бесплатно Лемон Три Пасседж
    Лемон Три Пасседж скачать торрент
    Лемон Три Пасседж смотреть онлайн
    Cкачать фильм Лемон Три Пасседж бесплатно
    Лемон Три Пасседж скачать торрент в хорошем качестве
    Лемон Три Пасседж смотреть онлайн бесплатно в хорошем качестве
    Вы не можете начинать темы
    Вы не можете отвечать на сообщения
    Вы не можете редактировать свои сообщения
    Вы не можете удалять свои сообщения
    Вы не можете голосовать в опросах
    Вы не можете прикреплять файлы к сообщениям
    Вы можете скачивать файлы
    Лемон Три Пасседж / Lemon Tree Passage [2013, ужасы, триллер, детектив, BDRip 1080p, Любительский [den904, DeadSno] смотреть онлайн, скачать торрент picoco.icu