Доктор Стрэндж

Лицензия

Добыча

Дубляж

Дом дракона

1 сезон

Тор

Дубляж

В эфире

Дубляж

Там, где раки поют

MVO

Властелин колец

1 сезон

Deluxe

pack

Рекомендуем

30

Пиратка

ВАЖНО

ВАЖНО

Ghostwire

Пиратка

jed

RePack

nioh2

RePack

RDR2

RePack

NEED FOR SPEED™ PAYBACK

RePack

скачать торрент

Кинопоиск HD

Острые козырьки 6 сезон

6 сезон

FAR CRY 6

RePack

скачать торрент

Лицензия

скачать торрент

MVO

1

1 сезон

скачать торрент

1 сезон

скачать торрент

Лицензия

  

Сумеречная страна / Skumringslandet (Пауль Магнус Лундё ) [2014, фэнтези, криминал, детектив, BDRip 1080p, Любительский (двухголосый) [den904, DeadSno]

Сумеречная страна через торрент piratbit.org

Размер: 5.72 GB | Добавлен: 7 лет 10 мес. назад | Торрент скачан:71 раз
Смотреть онлайн | Скачать   

29-01-2015 20:56 Сумеречная страна Скачать торрент  

Сумеречная страна / Skumringslandet

Год выпуска: 2014
Страна: Норвегия
Жанр: фэнтези, криминал, детектив
Продолжительность: 01:22:05
Перевод: Любительский (двухголосый) [den904, DeadSno]
Субтитры: русские, русские (С. Бельков), английские,
Режиссер: Пауль Магнус Лундё
В ролях: Ларс Могенс Осе (Chef), Томас Аске Берг, Ким Бодния (Bergtor), Юэн Бремнер (Rabbi Dunbar), Gerd Julie Fjell (Nun), Marianne Mæland Fredbo, Fredrik Finne Halvorsen (Villager), Эспен Хана (The Innkeeper), Jan Håkon Hansen (Villager), Erik Helgesen (Nun / villager), Kristina Knaben Hennestad (Kristine), Кнут Хусебё
Описание:
Расследование преступлений таинственного серийного убийцы, происходящих в горной деревне Норвегии в середине 1300-х.
Рейтинг:

Качество: BDRip 1080p
Формат: MKV
Видео кодек: AVC
Аудио кодек:AC3, DTS
Видео: AVC, 1920x808 (2.40:1), 8026 kbps, 24 fps, 0,216 bpp
Аудио №1: русский / AC3 / 5.1 / 48 kHz / 448 kbps / 16 bit ||
Аудио №2: Norwegian / DTS / 5.1 / 48 kHz / 1510 kbps / 24 bit

Код:

General
Unique ID                                : 196521144639165113638259535785483498493 (0x93D89880E1C6BFE2968F270C4916F3FD)
Complete name                            : D:\Торенты\The.Veil.of.Twilight.2014.Blu.Ray.1080p.CINEMANIA.mkv
Format                                   : Matroska
Format version                           : Version 4 / Version 2
File size                                : 5.72 GiB
Duration                                 : 1h 22mn
Overall bit rate                         : 9 979 Kbps
Movie name                               : Release Group CINEMANIA
Encoded date                             : UTC 2015-01-29 18:55:14
Writing application                      : mkvmerge v7.5.0 ('Glass Culture') 64bit built on Jan  4 2015 16:48:44
Writing library                          : libebml v1.3.1 + libmatroska v1.4.2

Video
ID                                       : 1
Format                                   : AVC
Format/Info                              : Advanced Video Codec
Format profile                           : High@L4.1
Format settings, CABAC                   : Yes
Format settings, ReFrames                : 5 frames
Codec ID                                 : V_MPEG4/ISO/AVC
Duration                                 : 1h 22mn
Bit rate                                 : 8 026 Kbps
Width                                    : 1 920 pixels
Height                                   : 808 pixels
Display aspect ratio                     : 2.40:1
Frame rate                               : 24.000 fps
Color space                              : YUV
Chroma subsampling                       : 4:2:0
Bit depth                                : 8 bits
Scan type                                : Progressive
Bits/(Pixel*Frame)                       : 0.216
Stream size                              : 4.49 GiB (78%)
Title                                    : Release Group CINEMANIA
Writing library                          : x264 core 144 r2525 40bb568
Encoding settings                        : cabac=1 / ref=5 / deblock=1:0:0 / analyse=0x3:0x133 / me=umh / subme=7 / psy=1 / psy_rd=1.00:0.00 / mixed_ref=1 / me_range=16 / chroma_me=1 / trellis=1 / 8x8dct=1 / cqm=0 / deadzone=21,11 / fast_pskip=0 / chroma_qp_offset=-2 / threads=18 / lookahead_threads=3 / sliced_threads=0 / nr=0 / decimate=1 / interlaced=0 / bluray_compat=0 / constrained_intra=0 / bframes=3 / b_pyramid=2 / b_adapt=1 / b_bias=0 / direct=1 / weightb=1 / open_gop=0 / weightp=2 / keyint=250 / keyint_min=23 / scenecut=40 / intra_refresh=0 / rc_lookahead=40 / rc=2pass / mbtree=1 / bitrate=8026 / ratetol=1.0 / qcomp=0.60 / qpmin=0 / qpmax=69 / qpstep=4 / cplxblur=20.0 / qblur=0.5 / ip_ratio=1.40 / aq=1:1.00
Language                                 : Norwegian
Default                                  : Yes
Forced                                   : No

Audio #1
ID                                       : 2
Format                                   : AC-3
Format/Info                              : Audio Coding 3
Mode extension                           : CM (complete main)
Codec ID                                 : A_AC3
Duration                                 : 1h 22mn
Bit rate mode                            : Constant
Bit rate                                 : 448 Kbps
Channel(s)                               : 6 channels
Channel positions                        : Front: L C R, Side: L R, LFE
Sampling rate                            : 48.0 KHz
Bit depth                                : 16 bits
Compression mode                         : Lossy
Stream size                              : 263 MiB (4%)
Title                                    : Влад и Снежинка
Language                                 : Russian
Default                                  : Yes
Forced                                   : Yes

Audio #2
ID                                       : 3
Format                                   : DTS
Format/Info                              : Digital Theater Systems
Codec ID                                 : A_DTS
Duration                                 : 1h 22mn
Bit rate mode                            : Constant
Bit rate                                 : 1 510 Kbps
Channel(s)                               : 6 channels
Channel positions                        : Front: L C R, Side: L R, LFE
Sampling rate                            : 48.0 KHz
Bit depth                                : 24 bits
Compression mode                         : Lossy
Stream size                              : 886 MiB (15%)
Language                                 : Norwegian
Default                                  : No
Forced                                   : No

Text #1
ID                                       : 4
Format                                   : UTF-8
Codec ID                                 : S_TEXT/UTF8
Codec ID/Info                            : UTF-8 Plain Text
Language                                 : Russian
Default                                  : Yes
Forced                                   : Yes

Text #2
ID                                       : 5
Format                                   : UTF-8
Codec ID                                 : S_TEXT/UTF8
Codec ID/Info                            : UTF-8 Plain Text
Title                                    : С. Бельков
Language                                 : Russian
Default                                  : No
Forced                                   : No

Text #3
ID                                       : 6
Format                                   : UTF-8
Codec ID                                 : S_TEXT/UTF8
Codec ID/Info                            : UTF-8 Plain Text
Language                                 : English
Default                                  : No
Forced                                   : No




Скачать Сумеречная страна через торрент http://i68.fastpic.ru/big/2015/0129/cb/44ca9a1ac428e05839143468193bd8cb.jpg Скачать, смотреть онлайн Сумеречная страна бесплантно в хорошем качестве Описание: Расследование преступлений таинственного серийного убийцы, происходящих в горной деревне Норвегии в середине ... 10 10 4
Торрент: Зарегистрирован [2015-01-29 20:56] · скачан: 71 раз
Статус: T временная
Размер: 5.72 GB
Как cкачать? Как скачать Сумеречная страна через торрент | UTorrent

% Раздел Тема Автор DL S | L
T Фильмы 2014 (Звук TS, Cam, VO, DVO) [ 1.47 GB ] Сумеречная страна / Skumringslandet | | HDRip, Любительский (двухголосый Ворон Скачать
1 | 0

28-11-2019 20:33  


Отключить вcю реклaмy на сайте, в т.ч. и в плеере онлайн просмотра!

29-01-2015 21:32 Сумеречная страна Скачать торрент  

третий скрин, это я с утра)



29-01-2015 23:15 Сумеречная страна Скачать торрент  

saidfatal писал(а):

третий скрин, это я с утра)

Сочувствую)



    Дорогой пользователь! Огромная просьба, поблагодарите релизера, оцените раздачу и оставьте свои комментарий, если Вы скачали Сумеречная страна через торрент бесплатно!!
    Комментировать посты могут только пользователи прошедшие не сложную регистрацию
    Показать сообщения:    


    Сумеречная страна через торрент
    Скачать бесплатно Сумеречная страна
    Сумеречная страна скачать торрент
    Сумеречная страна смотреть онлайн
    Cкачать фильм Сумеречная страна бесплатно
    Сумеречная страна скачать торрент в хорошем качестве
    Сумеречная страна смотреть онлайн бесплатно в хорошем качестве
    Вы не можете начинать темы
    Вы не можете отвечать на сообщения
    Вы не можете редактировать свои сообщения
    Вы не можете удалять свои сообщения
    Вы не можете голосовать в опросах
    Вы не можете прикреплять файлы к сообщениям
    Вы можете скачивать файлы
    Сумеречная страна / Skumringslandet [2014, фэнтези, криминал, детектив, BDRip 1080p, Любительский [den904, DeadSno] смотреть онлайн, скачать торрент picoco.icu