Доктор Стрэндж

Лицензия

Добыча

Дубляж

Уэнсдэй

1 сезон

Тор

Дубляж

В эфире

Дубляж

Там, где раки поют

MVO

Властелин колец

1 сезон

Deluxe

pack

Рекомендуем

30

Пиратка

ВАЖНО

ВАЖНО

Ghostwire

Пиратка

jed

RePack

nioh2

RePack

RDR2

RePack

NEED FOR SPEED™ PAYBACK

RePack

скачать торрент

Кинопоиск HD

Острые козырьки 6 сезон

6 сезон

FAR CRY 6

RePack

скачать торрент

Лицензия

скачать торрент

MVO

1

1 сезон

скачать торрент

1 сезон

скачать торрент

Лицензия

  

Мир, созданный без изъяна / The World Made Straight (Дэвид Буррис ) [2014, драма, BDRip 1080p, VOx2]

Мир, созданный без изъяна через торрент piratbit.org

Размер: 8.29 GB | Добавлен: 7 лет 10 мес. назад | Торрент скачан:26 раз
Смотреть онлайн | Скачать   

01-02-2015 13:04 Мир, созданный без изъяна Скачать торрент  

Мир, созданный без изъяна / The World Made Straight


Информация:
Год выпуска:2014
Страна: США
Жанр:драма
Продолжительность01:59:22
Перевод:Любительский (одноголосый) [Pashaup], Любительский одноголосый [Lord32x]
Субтитры: русские, русские (М. Васильев), английские,
Режиссер:Дэвид Буррис

В ролях:

Ноа Уайли (Leonard), Джереми Ирвин (Travis), Минка Келли (Dena), Эделейд Клеменс (Lori), Стив Эрл (Carlton), Хэйли Джоэл Осмент, Сандра Эллис Лэфферти (Mrs. Ponder), Маркус Хестер (Hubert), Диана Ленска (Leonard's Grandmother), Стивен Геведон (Grandfather), Тим Уэр (Store Manager), Колин Деннард (Wesley)
Описание:
Семнадцатилетний Трэвис однажды летом забредает в лес, на частную территорию около его дома в Северной Каролине, и обнаруживает целую рощу марихуаны, после чего попадает в медвежий капкан. Проведя в ловушке несколько часов, он, наконец, освобожден местным фермером, хозяином делянки. Однако с этого момента он уже не может спокойно относиться к тем порокам, которыми пропитано это небольшое сельское сообщество в Аппалачах.
Вскоре Тревис уезжает из родительского дома и поселяется у учителя Леонарда, который живет в трейлере на окраине города, балуется наркотиками и читает журналы об американской гражданской войне. Судьбы этих людей переплетаются, когда ужасное прошлое и болезненное настоящее городка приводит к ожесточенному сведению счетов, в котором с одной стороны оказывается замешан фермер с марихуаной, а с другой стороны эхом отдается кровавая резня времен гражданской войны, которая продолжает разделять местное сообщество.

  • Мировая премьера:9 января 2015

    Тех.Данные:
    Качество: BDRip 1080p
    Формат:MKV
    Видео кодек: AVC
    Аудио кодек:AC3
    Видео: AVC, 1920x800 (2.40:1), 8534 kbps, 23,976 fps, 0,232 bpp
    Аудио №1: русский / AC3 / 5.1 / 48 kHz / 384 kbps / 16 bit || [Pashaup]
    Аудио №2: русский / AC3 / 5.1 / 48 kHz / 384 kbps / 16 bit || [Lord32x]
    Аудио №3: английский / AC3 / 5.1 / 48 kHz / 640 kbps / 16 bit
    Навигация по главам: есть


    Код:

    General
    Unique ID                                : 246886517653933686692865825315536654332 (0xB9BC9D1CDA80BF7BB369EEDB5A2A4FFC)
    Complete name                            : D:\Торенты\The.World.Made.Straight.2015.Blu.Ray.1080p.CINEMANIA.mkv
    Format                                   : Matroska
    Format version                           : Version 4 / Version 2
    File size                                : 8.29 GiB
    Duration                                 : 1h 59mn
    Overall bit rate                         : 9 939 Kbps
    Movie name                               : Release Group CINEMANIA
    Encoded date                             : UTC 2015-01-31 17:49:23
    Writing application                      : mkvmerge v7.5.0 ('Glass Culture') 64bit built on Jan  4 2015 16:48:44
    Writing library                          : libebml v1.3.1 + libmatroska v1.4.2

    Video
    ID                                       : 1
    Format                                   : AVC
    Format/Info                              : Advanced Video Codec
    Format profile                           : High@L4.1
    Format settings, CABAC                   : Yes
    Format settings, ReFrames                : 5 frames
    Codec ID                                 : V_MPEG4/ISO/AVC
    Duration                                 : 1h 59mn
    Bit rate                                 : 8 534 Kbps
    Width                                    : 1 920 pixels
    Height                                   : 800 pixels
    Display aspect ratio                     : 2.40:1
    Frame rate                               : 23.976 fps
    Color space                              : YUV
    Chroma subsampling                       : 4:2:0
    Bit depth                                : 8 bits
    Scan type                                : Progressive
    Bits/(Pixel*Frame)                       : 0.232
    Stream size                              : 6.95 GiB (84%)
    Title                                    : Release Group CINEMANIA
    Writing library                          : x264 core 144 r2525 40bb568
    Encoding settings                        : cabac=1 / ref=5 / deblock=1:0:0 / analyse=0x3:0x133 / me=umh / subme=7 / psy=1 / psy_rd=1.00:0.00 / mixed_ref=1 / me_range=16 / chroma_me=1 / trellis=1 / 8x8dct=1 / cqm=0 / deadzone=21,11 / fast_pskip=0 / chroma_qp_offset=-2 / threads=60 / lookahead_threads=6 / sliced_threads=0 / nr=0 / decimate=1 / interlaced=0 / bluray_compat=0 / constrained_intra=0 / bframes=3 / b_pyramid=2 / b_adapt=1 / b_bias=0 / direct=1 / weightb=1 / open_gop=0 / weightp=2 / keyint=250 / keyint_min=23 / scenecut=40 / intra_refresh=0 / rc_lookahead=40 / rc=2pass / mbtree=1 / bitrate=8534 / ratetol=1.0 / qcomp=0.60 / qpmin=0 / qpmax=69 / qpstep=4 / cplxblur=20.0 / qblur=0.5 / ip_ratio=1.40 / aq=1:1.00
    Language                                 : English
    Default                                  : Yes
    Forced                                   : No

    Audio #1
    ID                                       : 2
    Format                                   : AC-3
    Format/Info                              : Audio Coding 3
    Mode extension                           : CM (complete main)
    Codec ID                                 : A_AC3
    Duration                                 : 1h 59mn
    Bit rate mode                            : Constant
    Bit rate                                 : 384 Kbps
    Channel(s)                               : 6 channels
    Channel positions                        : Front: L C R, Side: L R, LFE
    Sampling rate                            : 48.0 KHz
    Bit depth                                : 16 bits
    Compression mode                         : Lossy
    Stream size                              : 328 MiB (4%)
    Title                                    : Павел Морозов
    Language                                 : Russian
    Default                                  : Yes
    Forced                                   : Yes

    Audio #2
    ID                                       : 3
    Format                                   : AC-3
    Format/Info                              : Audio Coding 3
    Mode extension                           : CM (complete main)
    Codec ID                                 : A_AC3
    Duration                                 : 1h 59mn
    Bit rate mode                            : Constant
    Bit rate                                 : 384 Kbps
    Channel(s)                               : 6 channels
    Channel positions                        : Front: L C R, Side: L R, LFE
    Sampling rate                            : 48.0 KHz
    Bit depth                                : 16 bits
    Compression mode                         : Lossy
    Stream size                              : 328 MiB (4%)
    Title                                    : Игорь Фролов
    Language                                 : Russian
    Default                                  : No
    Forced                                   : No

    Audio #3
    ID                                       : 4
    Format                                   : AC-3
    Format/Info                              : Audio Coding 3
    Mode extension                           : CM (complete main)
    Codec ID                                 : A_AC3
    Duration                                 : 1h 59mn
    Bit rate mode                            : Constant
    Bit rate                                 : 640 Kbps
    Channel(s)                               : 6 channels
    Channel positions                        : Front: L C R, Side: L R, LFE
    Sampling rate                            : 48.0 KHz
    Bit depth                                : 16 bits
    Compression mode                         : Lossy
    Stream size                              : 546 MiB (6%)
    Language                                 : English
    Default                                  : No
    Forced                                   : No

    Text #1
    ID                                       : 5
    Format                                   : UTF-8
    Codec ID                                 : S_TEXT/UTF8
    Codec ID/Info                            : UTF-8 Plain Text
    Language                                 : Russian
    Default                                  : Yes
    Forced                                   : Yes

    Text #2
    ID                                       : 6
    Format                                   : UTF-8
    Codec ID                                 : S_TEXT/UTF8
    Codec ID/Info                            : UTF-8 Plain Text
    Title                                    : М. Васильев
    Language                                 : Russian
    Default                                  : No
    Forced                                   : No

    Text #3
    ID                                       : 7
    Format                                   : UTF-8
    Codec ID                                 : S_TEXT/UTF8
    Codec ID/Info                            : UTF-8 Plain Text
    Language                                 : English
    Default                                  : No
    Forced                                   : No

    Menu
    00:00:00.000                             : en:00:00:00.000
    00:10:07.857                             : en:00:10:07.857
    00:23:29.658                             : en:00:23:29.658
    00:31:37.145                             : en:00:31:37.145
    00:42:33.760                             : en:00:42:33.760
    00:53:12.564                             : en:00:53:12.564
    01:02:31.790                             : en:01:02:31.790
    01:14:10.613                             : en:01:14:10.613
    01:27:30.912                             : en:01:27:30.912
    01:36:43.172                             : en:01:36:43.172
    01:47:32.696                             : en:01:47:32.696
    01:54:18.226                             : en:01:54:18.226

    Скриншоты:



  • Скачать Мир, созданный без изъяна через торрент http://i58.fastpic.ru/big/2015/0201/80/3861f9154917ef57bf36cd586c39d580.jpg Скачать, смотреть онлайн Мир, созданный без изъяна бесплантно в хорошем качестве Год выпуска:2014✦ Страна: США✦ Жанр:драма✦ Продолжительность01:59:22✦ Перевод: (одноголосый) [Pashaup], ... 10 10 1
    Торрент: Зарегистрирован [2015-02-01 13:04] · скачан: 26 раз
    Статус: T временная
    Размер: 8.29 GB
    Как cкачать? Как скачать Мир, созданный без изъяна через торрент | UTorrent

    % Раздел Тема Автор DL S | L
    T Фильмы (WEB-DL 720p, 1080p) [ 3.88 GB ] Мир, созданный без изъяна / The World Made Straight | Мир | 720p, Любительский (одноголосый Ворон Скачать
    1 | 0

    28-11-2019 20:33  


    Отключить вcю реклaмy на сайте, в т.ч. и в плеере онлайн просмотра!

      Дорогой пользователь! Огромная просьба, поблагодарите релизера, оцените раздачу и оставьте свои комментарий, если Вы скачали Мир, созданный без изъяна через торрент бесплатно!!
      Комментировать посты могут только пользователи прошедшие не сложную регистрацию
      Показать сообщения:    


      Мир, созданный без изъяна через торрент
      Скачать бесплатно Мир, созданный без изъяна
      Мир, созданный без изъяна скачать торрент
      Мир, созданный без изъяна смотреть онлайн
      Cкачать фильм Мир, созданный без изъяна бесплатно
      Мир, созданный без изъяна скачать торрент в хорошем качестве
      Мир, созданный без изъяна смотреть онлайн бесплатно в хорошем качестве
      Вы не можете начинать темы
      Вы не можете отвечать на сообщения
      Вы не можете редактировать свои сообщения
      Вы не можете удалять свои сообщения
      Вы не можете голосовать в опросах
      Вы не можете прикреплять файлы к сообщениям
      Вы можете скачивать файлы
      Мир, созданный без изъяна / The World Made Straight [2014, драма, BDRip 1080p, VOx2] смотреть онлайн, скачать торрент picoco.icu