Доктор Стрэндж

Лицензия

Добыча

Дубляж

Уэнсдэй

1 сезон

Тор

Дубляж

В эфире

Дубляж

Там, где раки поют

MVO

Властелин колец

1 сезон

Deluxe

pack

Рекомендуем

30

Пиратка

ВАЖНО

ВАЖНО

Ghostwire

Пиратка

jed

RePack

nioh2

RePack

RDR2

RePack

NEED FOR SPEED™ PAYBACK

RePack

скачать торрент

Кинопоиск HD

Острые козырьки 6 сезон

6 сезон

FAR CRY 6

RePack

скачать торрент

Лицензия

скачать торрент

MVO

1

1 сезон

скачать торрент

1 сезон

скачать торрент

Лицензия

  

Город 44 / Miasto 44 (Ян Комаса ) [2014, драма, военный, BDRip 1080p, Любительский (двухголосый)[RAIM & NASTR]

Город 44 через торрент piratbit.org

Размер: 11.65 GB | Добавлен: 7 лет 10 мес. назад | Торрент скачан:117 раз
Смотреть онлайн | Скачать   

01-02-2015 14:37 Город 44 Скачать торрент  

Город 44 / Miasto 44


Информация:
Год выпуска:2014
Страна: Польша
Жанр:драма, военный
Продолжительность02:06:46
Перевод:Любительский (двухголосый)[RAIM & NASTR]
Субтитры: русские, русские (GlobalTrolle), английские,
Режиссер:Ян Комаса

В ролях:


Юзеф Павловский (Stefan Zawadzki), Зофиа Вихлач (Biedronka (Alicja Saska)), Анна Прухняк (Kama (Kamila Jedrusik)), Энтони Круликовски (Beksa), Мауриси Попьел (Góral), Filip Gurlacz (Rogal), Михал Миколайчак (Aleksander Saski), Каролина Станец (Beata), Жасмин Полак (Ewa), Томаш Шухардт (Kobra), Михал Журавски (Czarny), Михал Ковальчук (Pajak)

Описание:
Действие фильма начинается перед самым началом варшавского восстания 1 августа 1944 года. Фильм рассказывает о группе близких друзей, которые приезжают в столицу в разгар повстанческой борьбы. Стефан работает на заводе Ведля, содержит мать и младшего брата, ежедневно испытывая унижения немцев. Мечтает о мгновении, когда сможет им за все отплатить и исполнить долг перед Родиной. Как только представляется случай - он вступает в ряды Армии Крайовой. Во время конспиративных встреч Стефан знакомится с Бедронкой, тонкой и впечатлительной девушкой. Молодые люди познают вкус первой юношеской любви. Но когда смерть грозит на каждом шагу, такая любовь не может быть счастливой...


Тех.Данные:
Качество: BDRip 1080p
Формат:MKV
Видео кодек: AVC
Аудио кодек:AC3, DTS
Видео: AVC, 1920x804 (2.40:1), 11000 kbps, 24 fps, 0,297 bpp
Аудио №1: русский / AC3 / 5.1 / 48 kHz / 640 kbps / 16 bit ||
Аудио №2: Polish / DTS / 5.1 / 48 kHz / 1510 kbps / 24 bit
Навигация по главам: есть


Код:

General
Unique ID                                : 189585272454817902516089149302376959528 (0x8EA0CB9A5310EAD89670F20D82770E28)
Complete name                            : D:\Торенты\Miasto.44.2014.Blu.Ray.1080p.CINEMANIA.mkv
Format                                   : Matroska
Format version                           : Version 4 / Version 2
File size                                : 11.6 GiB
Duration                                 : 2h 6mn
Overall bit rate                         : 13.2 Mbps
Movie name                               : Release Group CINEMANIA
Encoded date                             : UTC 2015-02-01 13:29:47
Writing application                      : mkvmerge v7.5.0 ('Glass Culture') 64bit built on Jan  4 2015 16:48:44
Writing library                          : libebml v1.3.1 + libmatroska v1.4.2

Video
ID                                       : 1
Format                                   : AVC
Format/Info                              : Advanced Video Codec
Format profile                           : High@L4.1
Format settings, CABAC                   : Yes
Format settings, ReFrames                : 5 frames
Codec ID                                 : V_MPEG4/ISO/AVC
Duration                                 : 2h 6mn
Bit rate                                 : 11.0 Mbps
Width                                    : 1 920 pixels
Height                                   : 804 pixels
Display aspect ratio                     : 2.40:1
Frame rate                               : 24.000 fps
Color space                              : YUV
Chroma subsampling                       : 4:2:0
Bit depth                                : 8 bits
Scan type                                : Progressive
Bits/(Pixel*Frame)                       : 0.297
Stream size                              : 9.51 GiB (82%)
Title                                    : Release Group CINEMANIA
Writing library                          : x264 core 142 r2431+42 c69a006 tMod [8-bit@all X86_64]
Encoding settings                        : cabac=1 / ref=5 / deblock=1:-3:-3 / analyse=0x3:0x133 / me=umh / subme=11 / psy=1 / fade_compensate=0.00 / psy_rd=1.00:0.00 / mixed_ref=1 / me_range=32 / chroma_me=1 / trellis=2 / 8x8dct=1 / cqm=0 / deadzone=21,11 / fast_pskip=0 / chroma_qp_offset=-2 / threads=12 / lookahead_threads=3 / sliced_threads=0 / nr=0 / decimate=0 / interlaced=0 / bluray_compat=0 / constrained_intra=0 / fgo=0 / bframes=11 / b_pyramid=2 / b_adapt=1 / b_bias=0 / direct=3 / weightb=1 / open_gop=0 / weightp=2 / keyint=250 / keyint_min=24 / scenecut=40 / intra_refresh=0 / rc=2pass / mbtree=0 / bitrate=11000 / ratetol=1.0 / qcomp=0.60 / qpmin=0:0:0 / qpmax=69:69:69 / qpstep=4 / cplxblur=20.0 / qblur=0.5 / ip_ratio=1.40 / pb_ratio=1.30 / aq=1:0.80 / aq-sensitivity=10.00 / aq-factor=1.00:1.00:1.00 / aq2=0 / aq3=0
Language                                 : Polish
Default                                  : Yes
Forced                                   : No

Audio #1
ID                                       : 2
Format                                   : AC-3
Format/Info                              : Audio Coding 3
Mode extension                           : CM (complete main)
Codec ID                                 : A_AC3
Duration                                 : 2h 6mn
Bit rate mode                            : Constant
Bit rate                                 : 640 Kbps
Channel(s)                               : 6 channels
Channel positions                        : Front: L C R, Side: L R, LFE
Sampling rate                            : 48.0 KHz
Bit depth                                : 16 bits
Compression mode                         : Lossy
Stream size                              : 580 MiB (5%)
Title                                    : RAIM & NASTR
Language                                 : Russian
Default                                  : Yes
Forced                                   : Yes

Audio #2
ID                                       : 3
Format                                   : DTS
Format/Info                              : Digital Theater Systems
Codec ID                                 : A_DTS
Duration                                 : 2h 6mn
Bit rate mode                            : Constant
Bit rate                                 : 1 510 Kbps
Channel(s)                               : 6 channels
Channel positions                        : Front: L C R, Side: L R, LFE
Sampling rate                            : 48.0 KHz
Bit depth                                : 24 bits
Compression mode                         : Lossy
Stream size                              : 1.34 GiB (11%)
Language                                 : Polish
Default                                  : No
Forced                                   : No

Text #1
ID                                       : 4
Format                                   : UTF-8
Codec ID                                 : S_TEXT/UTF8
Codec ID/Info                            : UTF-8 Plain Text
Language                                 : Russian
Default                                  : Yes
Forced                                   : Yes

Text #2
ID                                       : 5
Format                                   : UTF-8
Codec ID                                 : S_TEXT/UTF8
Codec ID/Info                            : UTF-8 Plain Text
Title                                    : GlobalTrolle
Language                                 : Russian
Default                                  : No
Forced                                   : No

Text #3
ID                                       : 6
Format                                   : UTF-8
Codec ID                                 : S_TEXT/UTF8
Codec ID/Info                            : UTF-8 Plain Text
Language                                 : English
Default                                  : No
Forced                                   : No

Menu
00:00:00.000                             : en:00:00:00.000
00:10:31.167                             : en:00:10:31.167
00:17:36.833                             : en:00:17:36.833
00:25:37.958                             : en:00:25:37.958
00:31:37.125                             : en:00:31:37.125
00:38:52.292                             : en:00:38:52.292
00:47:22.833                             : en:00:47:22.833
00:54:30.875                             : en:00:54:30.875
01:01:32.083                             : en:01:01:32.083
01:08:56.833                             : en:01:08:56.833
01:19:35.583                             : en:01:19:35.583
01:27:00.667                             : en:01:27:00.667
01:33:06.083                             : en:01:33:06.083
01:40:17.875                             : en:01:40:17.875
01:49:11.292                             : en:01:49:11.292
01:59:40.125                             : en:01:59:40.125

Скриншоты:



Скачать Город 44 через торрент http://i59.fastpic.ru/big/2015/0201/e0/39292659ef39561696ce2a387ba49be0.jpg Скачать, смотреть онлайн Город 44 бесплантно в хорошем качестве Год выпуска:2014 Страна: Польша Жанр:драма, военный Продолжительность02:06:46 Перевод: (двухголосый)[RAIM & ... 6.6 10 5
Торрент: Зарегистрирован [2015-02-01 14:37] · скачан: 117 раз
Статус: T временная
Размер: 11.65 GB
Как cкачать? Как скачать Город 44 через торрент | UTorrent

% Раздел Тема Автор DL S | L
T Фильмы 2014 (Звук TS, Cam, VO, DVO) [ 2.05 GB ] Город 44 / Miasto 44 | | HDRip, Любительский (двухголосый Ворон Скачать
1 | 0

28-11-2019 20:33  


Отключить вcю реклaмy на сайте, в т.ч. и в плеере онлайн просмотра!

03-02-2015 12:22 Город 44 Скачать торрент  

...Качественная картинка, хорошие спец-эффекты. Правда многие заметят, что они местами не в тему, но я автора понял...

Взял коммент с кинопоиска, поэтому я здесь, и, думаю, это придаст решимости в принятии решения для других гостей.

спасибо, Веталь!
!Ворон писал(а):


Пожалуйста.



    Дорогой пользователь! Огромная просьба, поблагодарите релизера, оцените раздачу и оставьте свои комментарий, если Вы скачали Город 44 через торрент бесплатно!!
    Комментировать посты могут только пользователи прошедшие не сложную регистрацию
    Показать сообщения:    


    Город 44 через торрент
    Скачать бесплатно Город 44
    Город 44 скачать торрент
    Город 44 смотреть онлайн
    Cкачать фильм Город 44 бесплатно
    Город 44 скачать торрент в хорошем качестве
    Город 44 смотреть онлайн бесплатно в хорошем качестве
    Вы не можете начинать темы
    Вы не можете отвечать на сообщения
    Вы не можете редактировать свои сообщения
    Вы не можете удалять свои сообщения
    Вы не можете голосовать в опросах
    Вы не можете прикреплять файлы к сообщениям
    Вы можете скачивать файлы
    Город 44 / Miasto 44 [2014, драма, военный, BDRip 1080p, Любительский [RAIM & NASTR] смотреть онлайн, скачать торрент picoco.icu