Доктор Стрэндж

Лицензия

Добыча

Дубляж

Уэнсдэй

1 сезон

Тор

Дубляж

В эфире

Дубляж

Там, где раки поют

MVO

Властелин колец

1 сезон

Deluxe

pack

Рекомендуем

30

Пиратка

ВАЖНО

ВАЖНО

Ghostwire

Пиратка

jed

RePack

nioh2

RePack

RDR2

RePack

NEED FOR SPEED™ PAYBACK

RePack

скачать торрент

Кинопоиск HD

Острые козырьки 6 сезон

6 сезон

FAR CRY 6

RePack

скачать торрент

Лицензия

скачать торрент

MVO

1

1 сезон

скачать торрент

1 сезон

скачать торрент

Лицензия

  

Выжить в Арктике / Operasjon Arktis (Грете Бё-Воль)[2014, Семейный, приключения, BDRip 1080p] DVO [МЕГАПЫХАРЬ и Элис]

Выжить в Арктике через торрент piratbit.org

Размер: 6.68 GB | Добавлен: 7 лет 10 мес. назад | Торрент скачан:118 раз
Смотреть онлайн | Скачать   

01-02-2015 20:19 Выжить в Арктике Скачать торрент  

Выжить в Арктике / Operasjon Arktis


Информация:
Год выпуска:2014
Страна: Норвегия
Жанр:семейный
Продолжительность01:30:40
Перевод:Любительский (двухголосый) [МЕГАПЫХАРЬ и Элис]
Субтитры: Dutch
Режиссер постановщик: Грете Бё-Воль

В ролях:


Kaisa Gurine Antonsen (Julia), Ларс Аренц-Хансен (Oberst Holm), Николай Клеве Брош (Far), Ida Leonora Valestrand Eike (Ida), Leonard Valestrand Eike (Sindre), Кристофер Хивью (Fangstmann), Пер Кьерштад Андерсен (Myrmo), Иви Кассет Ростен (Hendriksen), Лине Верндаль (Mor)

Описание:
Трое детей — 13-летняя Юлия вместе с сестрой и братом оказались во льдах суровой Арктики неподалеку от Шпицбергена. Им предстоит бороться с непогодой, спасаться от белых медведей и искать пропитание. Современная история о робинзонах посреди величественной и морозно опасной природы.

  • Мировая премьера:17 октября 2014

    Тех.Данные:
    Качество: BDRip 1080p
    Формат:MKV
    Видео кодек: AVC
    Аудио кодек:AC3, DTS
    Видео: AVC, 1920x808 (2.40:1), 8840 kbps, 24 fps, 0,237 bpp
    Аудио №1: AC3 / 2.0 / 48 kHz / 192 kbps / 16 bit
    Аудио №2: Norwegian / DTS / 5.1 / 48 kHz / 1510 kbps / 24 bit

    Код:

    General
    Unique ID                                : 218101245291962628924781264100946828878 (0xA414C59CA74FCA67BE5F3F59C4235E4E)
    Complete name                            : D:\Торенты\Operation.Arctic.2014.1080p.mkv
    Format                                   : Matroska
    Format version                           : Version 4 / Version 2
    File size                                : 6.68 GiB
    Duration                                 : 1h 30mn
    Overall bit rate                         : 10.5 Mbps
    Encoded date                             : UTC 2015-02-01 19:26:01
    Writing application                      : mkvmerge v7.3.0 ('Nouages') 64bit built on Oct 22 2014 18:53:34
    Writing library                          : libebml v1.3.0 + libmatroska v1.4.1

    Video
    ID                                       : 1
    Format                                   : AVC
    Format/Info                              : Advanced Video Codec
    Format profile                           : High@L4.1
    Format settings, CABAC                   : Yes
    Format settings, ReFrames                : 5 frames
    Codec ID                                 : V_MPEG4/ISO/AVC
    Duration                                 : 1h 30mn
    Bit rate                                 : 8 840 Kbps
    Width                                    : 1 920 pixels
    Height                                   : 808 pixels
    Display aspect ratio                     : 2.40:1
    Frame rate                               : 24.000 fps
    Color space                              : YUV
    Chroma subsampling                       : 4:2:0
    Bit depth                                : 8 bits
    Scan type                                : Progressive
    Bits/(Pixel*Frame)                       : 0.237
    Stream size                              : 5.47 GiB (82%)
    Writing library                          : x264 core 144 r2525 40bb568
    Encoding settings                        : cabac=1 / ref=5 / deblock=1:0:0 / analyse=0x3:0x133 / me=umh / subme=7 / psy=1 / psy_rd=1.00:0.00 / mixed_ref=1 / me_range=16 / chroma_me=1 / trellis=1 / 8x8dct=1 / cqm=0 / deadzone=21,11 / fast_pskip=0 / chroma_qp_offset=-2 / threads=12 / lookahead_threads=2 / sliced_threads=0 / nr=0 / decimate=1 / interlaced=0 / bluray_compat=0 / constrained_intra=0 / bframes=3 / b_pyramid=2 / b_adapt=1 / b_bias=0 / direct=1 / weightb=1 / open_gop=0 / weightp=2 / keyint=250 / keyint_min=24 / scenecut=40 / intra_refresh=0 / rc_lookahead=40 / rc=2pass / mbtree=1 / bitrate=8840 / ratetol=1.0 / qcomp=0.60 / qpmin=0 / qpmax=69 / qpstep=4 / cplxblur=20.0 / qblur=0.5 / ip_ratio=1.40 / aq=1:1.00
    Language                                 : Norwegian
    Default                                  : Yes
    Forced                                   : No

    Audio #1
    ID                                       : 2
    Format                                   : AC-3
    Format/Info                              : Audio Coding 3
    Mode extension                           : CM (complete main)
    Codec ID                                 : A_AC3
    Duration                                 : 1h 30mn
    Bit rate mode                            : Constant
    Bit rate                                 : 192 Kbps
    Channel(s)                               : 2 channels
    Channel positions                        : Front: L R
    Sampling rate                            : 48.0 KHz
    Bit depth                                : 16 bits
    Compression mode                         : Lossy
    Stream size                              : 125 MiB (2%)
    Default                                  : Yes
    Forced                                   : No

    Audio #2
    ID                                       : 3
    Format                                   : DTS
    Format/Info                              : Digital Theater Systems
    Codec ID                                 : A_DTS
    Duration                                 : 1h 30mn
    Bit rate mode                            : Constant
    Bit rate                                 : 1 510 Kbps
    Channel(s)                               : 6 channels
    Channel positions                        : Front: L C R, Side: L R, LFE
    Sampling rate                            : 48.0 KHz
    Bit depth                                : 24 bits
    Compression mode                         : Lossy
    Stream size                              : 979 MiB (14%)
    Language                                 : Norwegian
    Default                                  : No
    Forced                                   : No

    Text
    ID                                       : 4
    Format                                   : UTF-8
    Codec ID                                 : S_TEXT/UTF8
    Codec ID/Info                            : UTF-8 Plain Text
    Language                                 : Dutch
    Default                                  : No
    Forced                                   : No

    Скриншоты:



  • Скачать Выжить в Арктике через торрент http://i58.fastpic.ru/big/2015/0201/7d/19be60d40aa1f168725e3307e148397d.jpg Скачать, смотреть онлайн Выжить в Арктике бесплантно в хорошем качестве Год выпуска:2014✦ Страна: Норвегия✦ Жанр:семейный✦ Продолжительность01:30:40✦ Перевод: (двухголосый) [МЕГАПЫХАРЬ и Элис]✦ ... 10 10 7
    Торрент: Зарегистрирован [2015-02-01 20:19] · скачан: 118 раз
    Статус: T временная
    Размер: 6.68 GB
    Как cкачать? Как скачать Выжить в Арктике через торрент | UTorrent

    % Раздел Тема Автор DL S | L
    T Фильмы 2014 [DVDrip, WEB-DLRip, HDrip] [ 1.37 GB ] Выжить в Арктике / Operasjon Arktis | | HDRip MVO официальный звук Anonymous Скачать
    1 | 0
    T Фильмы 2014 (Звук TS, Cam, VO, DVO) [ 1.23 GB ] Выжить в Арктике / Operasjon Arktis | | HDRip Ворон Скачать
    1 | 0

    28-11-2019 20:33  


    Отключить вcю реклaмy на сайте, в т.ч. и в плеере онлайн просмотра!

    02-02-2015 18:29 Выжить в Арктике Скачать торрент  

    Вот именно таких фильмов не хватает на экранах.



      Дорогой пользователь! Огромная просьба, поблагодарите релизера, оцените раздачу и оставьте свои комментарий, если Вы скачали Выжить в Арктике через торрент бесплатно!!
      Комментировать посты могут только пользователи прошедшие не сложную регистрацию
      Показать сообщения:    


      Выжить в Арктике через торрент
      Скачать бесплатно Выжить в Арктике
      Выжить в Арктике скачать торрент
      Выжить в Арктике смотреть онлайн
      Cкачать фильм Выжить в Арктике бесплатно
      Выжить в Арктике скачать торрент в хорошем качестве
      Выжить в Арктике смотреть онлайн бесплатно в хорошем качестве
      Вы не можете начинать темы
      Вы не можете отвечать на сообщения
      Вы не можете редактировать свои сообщения
      Вы не можете удалять свои сообщения
      Вы не можете голосовать в опросах
      Вы не можете прикреплять файлы к сообщениям
      Вы можете скачивать файлы
      Выжить в Арктике / Operasjon Arktis [2014, Семейный, приключения, BDRip 1080p] DVO [МЕГАПЫХАРЬ и Элис] смотреть онлайн, скачать торрент picoco.icu