1 сезон

1 сезон

iTunes

1

iTunes

Кинопоиск HD

iTunes

13

1 сезон

RePack

30

Deluxe

ВАЖНО

ИГРА 18+

pack

RePack

MK11
pack

Легкие деньги

RePack

jed

RePack

fifa19

RePack

RDR2

RePack

NEED FOR SPEED™ PAYBACK

4 сезон

9 сезон

Бесстыжие 9 сезон

Все сериалы

все сериалы на PB.wtf

RePack

FAR CRY 5
  
Magnet ссылка

Матч поинт / Match Point (Вуди Аллен) [2005 г., Триллер, драма, мелодрама, криминал, спорт, BDRip,]MVO(Rus,Ukr),DVO,AVO(Ю.Сербин),Original,Subs piratbit.org

Матч поинт через торрент piratbit.org

Размер: 3.37 GB | Добавлен: 6 лет 3 мес. назад | Торрент скачан:37 раз
Скачать  

02-02-2015 16:46 Матч поинт Скачать торрент  

Матч поинт / Match Point
Год выпуска: 2005
Страна: США, Великобритания
Жанр: Триллер, драма, мелодрама, криминал, спорт
Продолжительность: 02:03:58
Перевод: Профессиональный многоголосый
Субтитры: Русские, английские

Режиссер: Вуди Аллен




В ролях: Скарлетт Йоханссон, Джонатан Рис-Майерс, Эмили Мортимер, Мэттью Гуд, Брайан Кокс, Пенелопа Уилтон, Юэн Бремнер, Джеймс Несбитт, Маргарет Тайзэк, Зои Телфорд, Руперт Пенри-Джонс, Александр Армстронг, Пол Кэй, Дженис Келли, Алан Ок, Марк Гатисс, Филип Мэнсфилд, Саймон Кунц, Джеффри Стритфилд, Мэри Хегарти, Джон Форчун, Патриция Ваймарк, Энтони О’Доннелл, Миранда Рэйсон, Роуз Кигэн, Скотт Хэнди, Эмили Гилкрист, Селина Каделл, Джорджина Чапмэн, Колин Сэлмон, Тоби Кеббелл, Стив Пембертон

Описание: Некогда известный теннисист Крис переживает не лучшие времена. Надо как-то устраиваться в жизни, а тут еще он на свою беду встречает Нолу, типичную «роковую женщину», от которой не стоит ждать ничего, кроме неприятностей. Крис влюбляется в Нолу, а она, между тем, встречается с его другом Томом…

Качество: BDRip
Формат: MKV
Видео кодек: AVC
Аудио кодек: AC3
Видео: 2700 Кбит/с, 1024x576, 23.976 кадр/с
Аудио#1: Русский (AC3, 2 ch, 192 Кбит/с) / Профессиональный многоголосый (R5)
Аудио#2: Русский (AC3, 2 ch, 192 Кбит/с) / Профессиональный многоголосый (Инис)
Аудио#3: Русский (AC3, 2 ch, 192 Кбит/с) / Профессиональный двухголосый (Tycoon)
Аудио#4: Русский (AC3, 2 ch, 192 Кбит/с) / Авторский одноголосый (Ю.Сербин)
Аудио #5: Украинский (AC3, 2 ch, 192 Кбит/с) / Профессиональный многоголосый
Аудио #6: Английский (AC3, 2 ch, 224 Кбит/с)
Релиз от:
скриншот   скриншот   скриншот   скриншот   скриншот   скриншот   скриншот  

Полное имя : Matchpoint.2005.x264.BDRip.(AVC)-MediaClub.mkv
Формат : Matroska
Версия формата : Version 4 / Version 2
Размер файла : 3,37 Гбайт
Продолжительность : 2 ч. 4 м.
Общий поток : 3886 Кбит/сек
Название фильма : = MediaClub = rip by Painter
Дата кодирования : UTC 2015-01-20 20:38:03
Программа кодирования : mkvmerge v7.5.0 ('Glass Culture') 32bit built on Jan 4 2015 16:37:25
Библиотека кодирования : libebml v1.3.1 + libmatroska v1.4.2
DURATION : 02:00:17.126000000
NUMBER_OF_FRAMES : 1387
NUMBER_OF_BYTES : 54520
_STATISTICS_WRITING_APP : mkvmerge v7.5.0 ('Glass Culture') 32bit built on Jan 4 2015 16:37:25
_STATISTICS_WRITING_DATE_UTC : 2015-01-20 20:38:03
_STATISTICS_TAGS : BPS DURATION NUMBER_OF_FRAMES NUMBER_OF_BYTES

Видео
Идентификатор : 1
Формат : AVC
Формат/Информация : Advanced Video Codec
Профиль формата : High@L4.1
Параметр CABAC формата : Да
Параметр ReFrames формата : 10 кадров
Идентификатор кодека : V_MPEG4/ISO/AVC
Продолжительность : 2 ч. 4 м.
Битрейт : 2700 Кбит/сек
Ширина : 1024 пикселя
Высота : 576 пикселей
Соотношение сторон : 16:9
Режим частоты кадров : Постоянный
Частота кадров : 23,976 кадра/сек
Цветовое пространство : YUV
Субдискретизация насыщенности : 4:2:0
Битовая глубина : 8 бит
Тип развёртки : Прогрессивная
Бит/(Пиксели*Кадры) : 0.191
Размер потока : 2,27 Гбайт (68%)
Библиотека кодирования : x264 core 142 r2409+42 04be48a tMod [8-bit@4:2:0 X86]
Настройки программы : cabac=1 / ref=10 / deblock=1:-3:-3 / analyse=0x3:0x133 / me=umh / subme=11 / psy=1 / fade_compensate=0.00 / psy_rd=1.00:0.15 / mixed_ref=1 / me_range=32 / chroma_me=1 / trellis=2 / 8x8dct=1 / cqm=0 / deadzone=21,11 / fast_pskip=0 / chroma_qp_offset=-3 / threads=6 / lookahead_threads=1 / sliced_threads=0 / nr=0 / decimate=0 / interlaced=0 / bluray_compat=0 / constrained_intra=0 / fgo=0 / bframes=12 / b_pyramid=2 / b_adapt=2 / b_bias=0 / direct=3 / weightb=1 / open_gop=0 / weightp=2 / keyint=240 / keyint_min=23 / scenecut=40 / intra_refresh=0 / rc=2pass / mbtree=0 / bitrate=2700 / ratetol=1.0 / qcomp=0.60 / qpmin=0:0:0 / qpmax=69:69:69 / qpstep=4 / cplxblur=20.0 / qblur=0.5 / ip_ratio=1.40 / pb_ratio=1.30 / aq=2:0.90 / aq-sensitivity=10.00 / aq-factor=1.00:1.00:1.00 / aq2=0 / aq3=0
Язык : English
Default : Да
Forced : Нет
DURATION : 02:04:02.477000000
NUMBER_OF_FRAMES : 178441
NUMBER_OF_BYTES : 2510300390
_STATISTICS_WRITING_APP : mkvmerge v7.5.0 ('Glass Culture') 32bit built on Jan 4 2015 16:37:25
_STATISTICS_WRITING_DATE_UTC : 2015-01-20 20:38:03
_STATISTICS_TAGS : BPS DURATION NUMBER_OF_FRAMES NUMBER_OF_BYTES

Аудио #1
Идентификатор : 2
Формат : AC-3
Формат/Информация : Audio Coding 3
Расширение режима : CM (complete main)
Параметр Endianness формата : Big
Идентификатор кодека : A_AC3
Продолжительность : 2 ч. 4 м.
Вид битрейта : Постоянный
Битрейт : 192 Кбит/сек
Каналы : 2 канала
Расположение каналов : Front: L R
Частота : 48,0 КГц
Битовая глубина : 16 бит
Метод сжатия : С потерями
Размер потока : 170 Мбайт (5%)
Заголовок : Многоголосый (R5)
Язык : Russian
Default : Да
Forced : Нет

Аудио #2
Идентификатор : 3
Формат : AC-3
Формат/Информация : Audio Coding 3
Расширение режима : CM (complete main)
Параметр Endianness формата : Big
Идентификатор кодека : A_AC3
Продолжительность : 2 ч. 4 м.
Вид битрейта : Постоянный
Битрейт : 192 Кбит/сек
Каналы : 2 канала
Расположение каналов : Front: L R
Частота : 48,0 КГц
Битовая глубина : 16 бит
Метод сжатия : С потерями
Размер потока : 170 Мбайт (5%)
Заголовок : Многоголосый (Инис)
Язык : Russian
Default : Нет
Forced : Нет

Аудио #3
Идентификатор : 4
Формат : AC-3
Формат/Информация : Audio Coding 3
Расширение режима : CM (complete main)
Параметр Endianness формата : Big
Идентификатор кодека : A_AC3
Продолжительность : 2 ч. 4 м.
Вид битрейта : Постоянный
Битрейт : 192 Кбит/сек
Каналы : 2 канала
Расположение каналов : Front: L R
Частота : 48,0 КГц
Битовая глубина : 16 бит
Метод сжатия : С потерями
Размер потока : 170 Мбайт (5%)
Заголовок : Двухголосый (Tycoon)
Язык : Russian
Default : Нет
Forced : Нет

Аудио #4
Идентификатор : 5
Формат : AC-3
Формат/Информация : Audio Coding 3
Расширение режима : CM (complete main)
Параметр Endianness формата : Big
Идентификатор кодека : A_AC3
Продолжительность : 2 ч. 4 м.
Вид битрейта : Постоянный
Битрейт : 192 Кбит/сек
Каналы : 2 канала
Расположение каналов : Front: L R
Частота : 48,0 КГц
Битовая глубина : 16 бит
Метод сжатия : С потерями
Размер потока : 170 Мбайт (5%)
Заголовок : Сербин
Язык : Russian
Default : Нет
Forced : Нет

Аудио #5
Идентификатор : 6
Формат : AC-3
Формат/Информация : Audio Coding 3
Расширение режима : CM (complete main)
Параметр Endianness формата : Big
Идентификатор кодека : A_AC3
Продолжительность : 2 ч. 4 м.
Вид битрейта : Постоянный
Битрейт : 192 Кбит/сек
Каналы : 2 канала
Расположение каналов : Front: L R
Частота : 48,0 КГц
Битовая глубина : 16 бит
Метод сжатия : С потерями
Размер потока : 170 Мбайт (5%)
Заголовок : Многоголосый
Язык : Ukrainian
Default : Нет
Forced : Нет

Аудио #6
Идентификатор : 7
Формат : AC-3
Формат/Информация : Audio Coding 3
Расширение режима : CM (complete main)
Параметр Endianness формата : Big
Идентификатор кодека : A_AC3
Продолжительность : 2 ч. 4 м.
Вид битрейта : Постоянный
Битрейт : 224 Кбит/сек
Каналы : 2 канала
Расположение каналов : Front: L R
Частота : 48,0 КГц
Битовая глубина : 16 бит
Метод сжатия : С потерями
Размер потока : 199 Мбайт (6%)
Язык : English
Default : Нет
Forced : Нет

Текст #1
Идентификатор : 8
Формат : UTF-8
Идентификатор кодека : S_TEXT/UTF8
Идентификатор кодека/Информация : UTF-8 Plain Text
Язык : Russian
Default : Нет
Forced : Нет

Текст #2
Идентификатор : 9
Формат : UTF-8
Идентификатор кодека : S_TEXT/UTF8
Идентификатор кодека/Информация : UTF-8 Plain Text
Язык : English
Default : Нет
Forced : Нет

Меню
00:00:00.000 : :Chapter 01
00:06:03.528 : :Chapter 02
00:10:30.671 : :Chapter 03
00:17:15.409 : :Chapter 04
00:26:47.355 : :Chapter 05
00:33:37.931 : :Chapter 06
00:40:31.887 : :Chapter 07
00:47:25.800 : :Chapter 08
00:51:01.181 : :Chapter 09
00:58:37.554 : :Chapter 10
01:03:26.760 : :Chapter 11
01:10:29.350 : :Chapter 12
01:16:54.649 : :Chapter 13
01:20:40.001 : :Chapter 14
01:26:36.524 : :Chapter 15
01:35:57.376 : :Chapter 16
01:41:34.337 : :Chapter 17
01:47:54.634 : :Chapter 18
01:54:42.750 : :Chapter 19
02:01:49.092 : :Chapter 20

piratbit.org



Скачать Матч поинт через торрент https://pic1.kartinco.top/images/81/fyyfy.jpg Скачать фильм Матч поинт через торрент бесплантно в хорошем качестве Описание: Некогда известный теннисист Крис переживает не лучшие времена. Надо как-то устраиваться в жизни, а тут еще он на свою беду ... 10 10 3
Торрент: Зарегистрирован [2015-02-02 16:46] · скачан: 37 раз
Статус: √ проверено
Размер: 3.37 GB
Как cкачать? Как скачать Матч поинт через торрент | UTorrent

28-11-2019 20:33  

Отключить всю рекламу на сайте

    Дорогой пользователь! Огромная просьба, поблагодарите релизера, оцените раздачу и оставьте свои комментарий, если Вы скачали Матч поинт через торрент бесплатно! Внесите свою лепту в развитие PiratBit!
    Комментировать посты могут только пользователи прошедшие не сложную регистрацию
    Показать сообщения:    

    Матч поинт через торрент
    Скачать бесплатно Матч поинт
    Матч поинт скачать торрент
    Матч поинт смотреть онлайн
    Cкачать фильм Матч поинт бесплатно
    Матч поинт скачать торрент в хорошем качестве
    Матч поинт смотреть онлайн бесплатно в хорошем качестве


    Вы не можете начинать темы
    Вы не можете отвечать на сообщения
    Вы не можете редактировать свои сообщения
    Вы не можете удалять свои сообщения
    Вы не можете голосовать в опросах
    Вы не можете прикреплять файлы к сообщениям
    Вы можете скачивать файлы