Ссылка на приватное зеркало нашего сайта всего за 1$. Внимание количество ограничено!!!

2 сезон

iTunes

iTunes

1

iTunes

iTunes

iTunes

WEBRip

iTunes

30
pack

Вам бонус

ВАЖНО

!!Акция!!

Alien_RageХит недели

RePack

Horizon Zero Dawn

ИГРА 18+

pack

RePack

jed

!!Акция!!

Alien_Rage

RePack

fifa19

RePack

Assassins Creed: Odyssey

RePack

NEED FOR SPEED™ PAYBACK

4 сезон

9 сезон

Бесстыжие 9 сезон

Все сериалы

все сериалы на PB.wtf

RePack

FAR CRY 5
  

Мирный воин / Peaceful Warrior (Виктор Сальва / Victor Salva) [2006, США, Германия, драма, мелодрама, спорт, биография, WEB-DLRip] 2xMVO + Original piratbit.org

Мирный воин через торрент piratbit.org

Размер: 1.95 GB | Добавлен: 5 лет 7 мес. назад | Торрент скачан:228 раз
Скачать  

04-02-2015 11:48 Мирный воин Скачать торрент  

Мирный воин / Peaceful warrior
Страна: Германия, США
Год выпуска: 2006
Жанр: драма, мелодрама, спорт, биография
Продолжительность: 02:00:45
Перевод #1: Профессиональный (многоголосый закадровый) ТВ3
Перевод #2: Профессиональный (многоголосый закадровый) VSTeam Creative Group
Оригинальная аудиодорожка: английский
Cубтитры: нет

Режиссер: Виктор Сальва / Victor Salva

В ролях: Скотт Мехловиц, Ник Нолти, Эми Смарт, Тим ДиКей, Эштон Холмс, Пол Уэсли, Б.Дж. Бритт, Агнес Брукнер, Том Тарантини, Беатрис Розен

Описание: Дэна Миллмэна, студента колледжа и чемпиона мира по гимнастике, несмотря на успех, преследует чувство, что в его жизни чего-то не хватает. Проснувшись однажды от кошмара, он идет на ночную автозаправочную станцию, встречает старика, которого называет Сократом, и его мир изменяется навсегда. Начинается невероятное обучение у этого эксцентричного старого Воина. Дэн начинает духовную Одиссею в царство света и тени, романтики и тайны, на пути к последнему противостоянию, которое его освободит или уничтожит.
Эта ставшая классической история, рассказанная с теплотой и юмором, обращена к мирному воину внутри каждого из нас. Совершите путешествие вместе с Дэном по пути мирного воина к безграничному счастью...


Качество: WEB-DLRip [WEB-DL 720p]
Формат: AVI
Видео кодек: XviD
Аудио кодек: AC3
Видео: 720x304 (2.37:1), 23.976 fps, XviD build 73 ~1529 kbps avg, 0.29 bit/pixel
Аудио #1: 48 kHz, AC3 Dolby Digital, 2/0 (L,R) ch, ~192 kbps | MVO / ТВ3
Аудио #2: 48 kHz, AC3 Dolby Digital, 2/0 (L,R) ch, ~192 kbps | MVO / VSTeam Creative Group (отдельно)
Аудио #3: 48 kHz, AC3 Dolby Digital, 3/2 (L,C,R,l,r) + LFE ch, ~384 kbps | Original (отдельно)
Раздача от:

Код:

D:\Мои рипы\Peaceful.Warrior.2006.web-dlrip.dexter_lex\Peaceful.Warrior.2006.web-dlrip.dexter_lex.avi
  General
    Complete name : D:\Мои рипы\Peaceful.Warrior.2006.web-dlrip.dexter_lex\Peaceful.Warrior.2006.web-dlrip.dexter_lex.avi
    Format : AVI
    Format/Info : Audio Video Interleave
    File size : 1.46 GiB
    Duration : 2h 0mn
    Overall bit rate : 1 731 Kbps
    Writing application : VirtualDubMod 1.5.10.3 | www.virtualdub-fr.org || (build 2550/release)
    Writing library : VirtualDubMod build 2550/release
  Video #0
    ID : 0
    Format : MPEG-4 Visual
    Format profile : Advanced Simple@L5
    Format settings, BVOP : 1
    Format settings, QPel : No
    Format settings, GMC : No warppoints
    Format settings, Matrix : Custom
    Codec ID : XVID
    Codec ID/Hint : XviD
    Duration : 2h 0mn
    Bit rate : 1 529 Kbps
    Width : 720 pixels
    Height : 304 pixels
    Display aspect ratio : 2.35:1
    Frame rate : 23.976 fps
    Color space : YUV
    Chroma subsampling : 4:2:0
    Bit depth : 8 bits
    Scan type : Progressive
    Compression mode : Lossy
    Bits/(Pixel*Frame) : 0.291
    Stream size : 1.29 GiB (88%)
    Writing library : XviD 73
  Audio #1
    ID : 1
    Format : AC-3
    Format/Info : Audio Coding 3
    Mode extension : CM (complete main)
    Codec ID : 2000
    Duration : 2h 0mn
    Bit rate mode : Constant
    Bit rate : 192 Kbps
    Channel(s) : 2 channels
    Channel positions : Front: L R
    Sampling rate : 48.0 KHz
    Bit depth : 16 bits
    Compression mode : Lossy
    Stream size : 166 MiB (11%)
    Alignment : Split accross interleaves
    Interleave, duration : 42 ms (1.00 video frame)
    Interleave, preload duration : 500 ms

piratbit.org



Скачать Мирный воин через торрент http://i64.fastpic.ru/big/2015/0110/62/9bafabaeb3aab2264d9ac0c0398d5362.jpg Скачать фильм Мирный воин через торрент бесплантно в хорошем качестве Описание: Дэна Миллмэна, студента колледжа и чемпиона мира по гимнастике, несмотря на успех, преследует чувство, что в его жизни чего-то не ... 10 10 6
Торрент: Зарегистрирован [2015-02-04 11:48] · скачан: 228 раз
Статус: √ проверено
Размер: 1.95 GB
Как cкачать? Как скачать Мирный воин через торрент | qTorrent

28-11-2019 20:33  

Отключить всю рекламу на сайте

12-02-2015 19:20 Мирный воин Скачать торрент  

Офигенный фильм! на 10 балов
Советую всем!piratbit.org



14-02-2015 07:43 Мирный воин Скачать торрент  

Благодарю, шикарный фильмpiratbit.org



    Дорогой пользователь! Огромная просьба, поблагодарите релизера, оцените раздачу и оставьте свои комментарий, если Вы скачали Мирный воин через торрент бесплатно! Внесите свою лепту в развитие PiratBit!
    Комментировать посты могут только пользователи прошедшие не сложную регистрацию
    Показать сообщения:    

    Мирный воин через торрент
    Скачать бесплатно Мирный воин
    Мирный воин скачать торрент
    Мирный воин смотреть онлайн
    Cкачать фильм Мирный воин бесплатно
    Мирный воин скачать торрент в хорошем качестве
    Мирный воин смотреть онлайн бесплатно в хорошем качестве


    Вы не можете начинать темы
    Вы не можете отвечать на сообщения
    Вы не можете редактировать свои сообщения
    Вы не можете удалять свои сообщения
    Вы не можете голосовать в опросах
    Вы не можете прикреплять файлы к сообщениям
    Вы можете скачивать файлы