2 сезон

iTunes

1 сезон

1

iTunes

iTunes

iTunes

1 сезон

RePack

30

ИГРА 18+

pack

ВАЖНО

!!Акция!!

Alien_RageХит недели

RePack

MK11
pack

Забери бонус

RePack

jed

!!Акция!!

Alien_Rage

RePack

fifa19

RePack

Assassins Creed: Odyssey

RePack

NEED FOR SPEED™ PAYBACK

4 сезон

9 сезон

Бесстыжие 9 сезон

Все сериалы

все сериалы на PB.wtf

RePack

FAR CRY 5
  

Замороженный / Hibernatus (Эдуар Молинаро / Edouard Molinaro) [1969, Франция, Италия, комедия, фэнтези, BDRip-AVC] Dub + MVO + Subs (Rus, Eng) piratbit.org

Замороженный через торрент piratbit.org

Размер: 1.46 GB | Добавлен: 5 лет 8 мес. назад | Торрент скачан:61 раз
Скачать  

04-02-2015 12:09 Замороженный Скачать торрент  

Замороженный / Hibernatus
Год выпуска: 1969
Страна: Франция, Италия
Жанр: комедия, фэнтези
Продолжительность: 01:21:52
Перевод #1: Профессиональный (дублированный) Мосфильм (советский дубляж со вставками многоголосого перевода)
Перевод #2: Профессиональный (многоголосый закадровый) Cinema Prestige
Cубтитры: русский, английский

Режиссёр: Эдуард Молинаро / Edouard Molinaro

В ролях: Луи де Фюнес, Микаэль Лонсдаль, Клоди Жансак, Бернар Алан, Анник Алан, Оливье Де Фюнес, Эльетт Демэ, Мартина Келли, Жак Легра, Паскаль Маззотти, Клод Пьеплю, Поль Пребуа, Ив Венсан, Эвелин Дассас, Монита Дерьё, Робер Ле Беаль, Гарри-Макс, Макс Монтавон, Карло Нелл, Виржини Виньон, Пол Бисцилиа

Описание: Юбер де Тартас, богатый промышленник, живет счастливо со своей женой Эдме и сыном. Но внезапно странное событие потрясает их жизнь: на полюсе найден замороженный дедушка его жены, пролежавший в ледяной глыбе 65 лет. Его выводят из состояния зимней спячки, а чтобы не травмировать дедушкину психику, пытаются инсценировать вокруг него жизнь начала XX века. Но в их планы вмешиваются непредвиденные обстоятельства.


Качество видео: BDRip-AVC [BDRemux 1080p]
Формат видео: MKV
Видео кодек: H.264
Аудио кодек: AC3
Видео: 880x374 (2.35:1), 24.000 fps, H264 ~ 2166 Kbps, 0.274 bit/pixel
Аудио #1: 48 kHz, AC3 Dolby Digital, 2/0 (L,R) ch, ~192 kbps | Dub
Аудио #2: 48 kHz, AC3 Dolby Digital, 2/0 (L,R) ch, ~192 kbps | MVO
Раздача от:
D:\Мои рипы\Hibernatus.1969.bdrip-avc.dexter_lex.mkv
General
Unique ID : 186443257756782656638686453322537526300 (0x8C43AA5161C581A390B90A45BFF4641C)
Complete name : D:\Мои рипы\Hibernatus.1969.bdrip-avc.dexter_lex.mkv
Format : Matroska
Format version : Version 4 / Version 2
File size : 1.46 GiB
Duration : 1h 21mn
Overall bit rate : 2 552 Kbps
Movie name : rip by dexter lex
Encoded date : UTC 2014-12-12 09:17:54
Writing application : mkvmerge v7.1.0 ('Good Love') 64bit built on Jul 27 2014 13:06:55
Writing library : libebml v1.3.0 + libmatroska v1.4.1
DURATION : 01:20:04.499000000
NUMBER_OF_FRAMES : 1013
NUMBER_OF_BYTES : 29746
_STATISTICS_WRITING_APP : mkvmerge v7.1.0 ('Good Love') 64bit built on Jul 27 2014 13:06:55
_STATISTICS_WRITING_DATE_UTC : 2014-12-12 09:17:54
_STATISTICS_TAGS : BPS DURATION NUMBER_OF_FRAMES NUMBER_OF_BYTES
Video #1
ID : 1
Format : AVC
Format/Info : Advanced Video Codec
Format profile : High@L4.1
Format settings, CABAC : Yes
Format settings, ReFrames : 16 frames
Codec ID : V_MPEG4/ISO/AVC
Duration : 1h 21mn
Bit rate : 2 166 Kbps
Width : 880 pixels
Height : 374 pixels
Display aspect ratio : 2.35:1
Frame rate : 24.000 fps
Color space : YUV
Chroma subsampling : 4:2:0
Bit depth : 8 bits
Scan type : Progressive
Bits/(Pixel*Frame) : 0.274
Stream size : 1.21 GiB (83%)
Writing library : x264 core 130 r2273 b3065e6
Encoding settings : cabac=1 / ref=16 / deblock=1:-3:-2 / analyse=0x3:0x133 / me=umh / subme=11 / psy=1 / psy_rd=0.95:0.08 / mixed_ref=1 / me_range=48 / chroma_me=1 / trellis=2 / 8x8dct=1 / cqm=0 / deadzone=21,11 / fast_pskip=0 / chroma_qp_offset=-3 / threads=6 / lookahead_threads=1 / sliced_threads=0 / nr=0 / decimate=0 / interlaced=0 / bluray_compat=0 / constrained_intra=0 / bframes=15 / b_pyramid=2 / b_adapt=2 / b_bias=0 / direct=3 / weightb=1 / open_gop=0 / weightp=2 / keyint=240 / keyint_min=23 / scenecut=40 / intra_refresh=0 / rc_lookahead=80 / rc=2pass / mbtree=1 / bitrate=2166 / ratetol=1.0 / qcomp=0.60 / qpmin=0 / qpmax=69 / qpstep=4 / cplxblur=20.0 / qblur=0.5 / ip_ratio=1.40 / aq=2:1.00
Language : French
Default : Yes
Forced : No
DURATION : 01:21:57.963000000
NUMBER_OF_FRAMES : 118031
NUMBER_OF_BYTES : 1331644730
_STATISTICS_WRITING_APP : mkvmerge v7.1.0 ('Good Love') 64bit built on Jul 27 2014 13:06:55
_STATISTICS_WRITING_DATE_UTC : 2014-12-12 09:17:54
_STATISTICS_TAGS : BPS DURATION NUMBER_OF_FRAMES NUMBER_OF_BYTES
Audio #2
ID : 2
Format : AC-3
Format/Info : Audio Coding 3
Mode extension : CM (complete main)
Codec ID : A_AC3
Duration : 1h 21mn
Bit rate mode : Constant
Bit rate : 192 Kbps
Channel(s) : 2 channels
Channel positions : Front: L R
Sampling rate : 48.0 KHz
Bit depth : 16 bits
Compression mode : Lossy
Stream size : 113 MiB (8%)
Title : Dub / Мосфильм
Language : Russian
Default : Yes
Forced : No
Audio #3
ID : 3
Format : AC-3
Format/Info : Audio Coding 3
Mode extension : CM (complete main)
Codec ID : A_AC3
Duration : 1h 21mn
Bit rate mode : Constant
Bit rate : 192 Kbps
Channel(s) : 2 channels
Channel positions : Front: L R
Sampling rate : 48.0 KHz
Bit depth : 16 bits
Compression mode : Lossy
Stream size : 113 MiB (8%)
Title : MVO / Cinema Prestige
Language : Russian
Default : No
Forced : No
Text #4
ID : 4
Format : UTF-8
Codec ID : S_TEXT/UTF8
Codec ID/Info : UTF-8 Plain Text
Language : Russian
Default : Yes
Forced : No
Text #5
ID : 5
Format : UTF-8
Codec ID : S_TEXT/UTF8
Codec ID/Info : UTF-8 Plain Text
Language : English
Default : No
Forced : No
Menu
00:00:00.000 : fr:Chapter 1
00:08:23.707 : fr:Chapter 2
00:14:38.582 : fr:Chapter 3
00:22:00.000 : fr:Chapter 4
00:27:25.415 : fr:Chapter 5
00:34:22.416 : fr:Chapter 6
00:40:05.791 : fr:Chapter 7
00:50:03.125 : fr:Chapter 8
00:57:20.458 : fr:Chapter 9
01:02:04.791 : fr:Chapter 10
01:07:41.000 : fr:Chapter 11
01:13:04.416 : fr:Chapter 12[/code]
piratbit.org



Скачать Замороженный через торрент http://i64.fastpic.ru/big/2014/1217/0d/3f4784411456f85fd1dc1f147c1c250d.jpg Скачать фильм Замороженный через торрент бесплантно в хорошем качестве Описание: Юбер де Тартас, богатый промышленник, живет счастливо со своей женой Эдме и сыном. Но внезапно странное событие потрясает их ... 10 10 3
Торрент: Зарегистрирован [2015-02-04 12:09] · скачан: 61 раз
Статус: √ проверено
Размер: 1.46 GB
Как cкачать? Как скачать Замороженный через торрент | qTorrent

% Раздел Тема Автор DL S | L
Фильмы [HD 720p, 1080p] (Хороший звук DUB, MVO) [ 3.46 GB ] Замороженный / Hibernatus [1969 BDRip 720p by msltel] DUB 4 x MVO msltel Скачать
1 | 0
Фильмы [HD 720p, 1080p] (Хороший звук DUB, MVO) [ 8.22 GB ] Замороженный / Hibernatus [1969 BDRip 1080p by msltel] DUB 4 x MVO msltel Скачать
1 | 0
Фильмы [HD 720p, 1080p] (Хороший звук DUB, MVO) [ 4.8 GB ] Замороженный / Hibernatus [1969 BDRip 720p DUB MVO] кэп Скачать
1 | 0
Классика зарубежного кино [ 744 MB ] Замороженный / Hibernatus [1969 Италия HDRip] Dub dexter lex Скачать
1 | 0

28-11-2019 20:33  

Отключить всю рекламу на сайте

    Дорогой пользователь! Огромная просьба, поблагодарите релизера, оцените раздачу и оставьте свои комментарий, если Вы скачали Замороженный через торрент бесплатно! Внесите свою лепту в развитие PiratBit!
    Комментировать посты могут только пользователи прошедшие не сложную регистрацию
    Показать сообщения:    

    Замороженный через торрент
    Скачать бесплатно Замороженный
    Замороженный скачать торрент
    Замороженный смотреть онлайн
    Cкачать фильм Замороженный бесплатно
    Замороженный скачать торрент в хорошем качестве
    Замороженный смотреть онлайн бесплатно в хорошем качестве


    Вы не можете начинать темы
    Вы не можете отвечать на сообщения
    Вы не можете редактировать свои сообщения
    Вы не можете удалять свои сообщения
    Вы не можете голосовать в опросах
    Вы не можете прикреплять файлы к сообщениям
    Вы можете скачивать файлы