Присоединяйтесь к нам в Telegram!, здесь всегда актуальный адрес сайта, оперативная поддержка и многое другое!!

>

5.9

iTunes

7.4

iTunes

9.4

1 сезон

1

7.4

2 сезон

7.2

iTunes

7.3

1 сезон

13

6.1

iTunes

8.3

Пиратка

30

ULTIMATE

pack

9.9

Лицензия

ВАЖНО

ИГРА 18+

pack

7.3

RePack

MK11

7.7

RePack

jed

7.8

RePack

fifa19

8.5

RePack

RDR2

RePack

NEED FOR SPEED™ PAYBACK

5 сезон

9 сезон

Бесстыжие 9 сезон

Все сериалы

все сериалы на PB.wtf

RePack

FAR CRY 5

Anonymous, добрый вечер, мы катастрофически не успеваем собрать деньги на оплату серверов, помогите нам пожалуйста 5,10,15р., для нас важна любая помощь . В качестве благодарности мы отключим Вам всю рекламу на сайте (укажите свой ник в строку Ваше имя)!

×
  
Magnet ссылка

Исчезновение / VANish (Брайан Брокербрейдер) [2015, США, ужасы, боевик, триллер, BDRip) VO [R.A.I.M.] piratbit.org

Исчезновение через торрент piratbit.org

Размер: 1.37 GB | Добавлен: 6 лет 9 мес. назад | Торрент скачан:398 раз
Смотреть онлайн Исчезновение | Скачать    Ребята, помогите собрать деньги на оплату серверов!!!

07-02-2015 08:35 Исчезновение Скачать торрент  

Исчезновение / VANish
«The sh*t's about to hit the van»


  • Год выпуска: 2015
  • Жанр: ужасы, боевик, триллер
  • Продолжительность: 01:19:17
  • Перевод: Любительский (одноголосый) [R.A.I.M.]

  • Режиссер: Bryan Bockbrader
  • В ролях:

    Майра Уолш (Emma), Тони Тодд (Officer Darrow), Дэнни Трехо (Carlos), Bryan Bockbrader (Max), Адам Гатри (Shane), Денис Дорадо (Jasmine), Эсперанса Диас (Isabella), Анджела Робитейлл (Lexi), Джо Дэвис (Ed), Майкл Мендоза (Hitman #2), Luis Deveze (Hitman #1), Дэн Брункер (Baseball Bat Neighbor)

  • Описание:
    Похищенная молодая девушка едет в фургоне с полными отморозками. Парни даже и не предполагали что вот так всё обернется, узнав что эта девушка дочь мексиканского наркобарона.
  • Рейтинг:



  • Качество: BDRip
  • Формат: :AVI
  • Видео кодек: XviD
  • Аудио кодек: AC3
  • Видео: 720x304 (2.35:1), 2008 kbps, 23,976 fps, 0,383 bpp
  • Аудио №1: Русский 2.0 / 48 kHz / 192 kbps / 16 bit
  • Аудио №2: Английский 2.0 / 48 kHz / 256 kbps / 16 bit
  • Релиз от: GEKADOL

    Код:

    General
    Complete name                            : F:\VANish.2014.L1.BDRip.1400MB.avi
    Format                                   : AVI
    Format/Info                              : Audio Video Interleave
    File size                                : 1.37 GiB
    Duration                                 : 1h 19mn
    Overall bit rate                         : 2 471 Kbps
    Writing application                      : VirtualDubMod 1.5.10.3 | www.virtualdub-fr.org || (build 2550/release)
    Writing library                          : VirtualDubMod build 2550/release

    Video
    ID                                       : 0
    Format                                   : MPEG-4 Visual
    Format profile                           : Advanced Simple@L5
    Format settings, BVOP                    : 1
    Format settings, QPel                    : No
    Format settings, GMC                     : No warppoints
    Format settings, Matrix                  : Custom
    Codec ID                                 : XVID
    Codec ID/Hint                            : XviD
    Duration                                 : 1h 19mn
    Bit rate                                 : 2 008 Kbps
    Width                                    : 720 pixels
    Height                                   : 304 pixels
    Display aspect ratio                     : 2.35:1
    Frame rate                               : 23.976 fps
    Color space                              : YUV
    Chroma subsampling                       : 4:2:0
    Bit depth                                : 8 bits
    Scan type                                : Progressive
    Compression mode                         : Lossy
    Bits/(Pixel*Frame)                       : 0.383
    Stream size                              : 1.11 GiB (81%)
    Writing library                          : XviD 73

    Audio #1
    ID                                       : 1
    Format                                   : AC-3
    Format/Info                              : Audio Coding 3
    Mode extension                           : CM (complete main)
    Codec ID                                 : 2000
    Duration                                 : 1h 19mn
    Bit rate mode                            : Constant
    Bit rate                                 : 192 Kbps
    Channel(s)                               : 2 channels
    Channel positions                        : Front: L R
    Sampling rate                            : 48.0 KHz
    Bit depth                                : 16 bits
    Compression mode                         : Lossy
    Delay relative to video                  : 22ms
    Stream size                              : 109 MiB (8%)
    Alignment                                : Split accross interleaves
    Interleave, duration                     : 42 ms (1.00 video frame)
    Interleave, preload duration             : 500 ms

    Audio #2
    ID                                       : 2
    Format                                   : AC-3
    Format/Info                              : Audio Coding 3
    Mode extension                           : CM (complete main)
    Codec ID                                 : 2000
    Duration                                 : 1h 19mn
    Bit rate mode                            : Constant
    Bit rate                                 : 256 Kbps
    Channel(s)                               : 2 channels
    Channel positions                        : Front: L R
    Sampling rate                            : 48.0 KHz
    Bit depth                                : 16 bits
    Compression mode                         : Lossy
    Stream size                              : 145 MiB (10%)
    Alignment                                : Split accross interleaves
    Interleave, duration                     : 42 ms (1.00 video frame)
    Interleave, preload duration             : 500 ms




    Внимание! Присутствует ненормативная лексика!
    Скриншоты:
    скриншот   скриншот   скриншот   скриншот   скриншот  
    скриншот  


    piratbit.org



  • Скачать Исчезновение через торрент http://i5.imageban.ru/out/2015/02/07/becb56dc06e78cb6afb9341747652363.jpg Скачать, смотреть онлайн Исчезновение бесплантно в хорошем качестве Описание: Похищенная молодая девушка едет в фургоне с полными отморозками. Парни даже и не предполагали что вот так всё обернется, узнав ... 9.5 10 13
    Торрент: Зарегистрирован [2015-02-07 08:35] · скачан: 398 раз
    Статус: T временная
    Размер: 1.37 GB
    Как cкачать? Как скачать Исчезновение через торрент | UTorrent

    % Раздел Тема Автор DL S | L
    Фильмы (Blu-ray, BD-Remux, HDDVD) [ 17.14 GB ] Исчезновение / The Vanishing [2018 BDRemux 1080p] MVO [СВ-Студия] sheker187 Скачать
    1 | 0
    Фильмы 2018 [DVDrip, WEB-DLRip, HDrip] (DUB, MVO) [ 1.99 GB ] Исчезновение / The Vanishing / Keepers [2018 BDRip-AVC] MVO [СВ-Студия] bober100 Скачать
    1 | 0
    Фильмы 2017 [DVDrip, WEB-DLRip, HDrip] (DUB, MVO) [ 1.41 GB ] Исчезновение Сидни Холла / The Vanishing of Sidney Hall [2017 BDRip] MVO Twi7ter Скачать
    1 | 0
    Фильмы 2017 [DVDrip, WEB-DLRip, HDrip] (DUB, MVO) [ 1.53 GB ] Исчезновение Сидни Холла / The Vanishing of Sidney Hall [2017 BDRip-AVC] MVO bober100 Скачать
    1 | 0
    Фильмы 2017 [DVDrip, WEB-DLRip, HDrip] (DUB, MVO) [ 2.13 GB ] Исчезновение Сидни Холла / The Vanishing of Sidney Hall [2017 BDRip] MVO Twi7ter Скачать
    1 | 0
    R.G. Resident & PiratVoice - Фильмы, Видео [ 2.05 GB ] Исчезновение Сидни Холла / The Vanishing of Sidney Hall [2017 BDRip от R.G. Resident] MVO -Lexx- Скачать
    1 | 0
    Фильмы [HD 720p, 1080p] (Хороший звук DUB, MVO) [ 8.75 GB ] Исчезновение Сидни Холла / The Vanishing of Sidney Hall [2017 BDRip 1080p] MVO -Lexx- Скачать
    1 | 0

    28-11-2019 20:33  

    Отключить всю рекламу на сайте

    07-02-2015 12:41 Исчезновение Скачать торрент  

    В последнее время слишком много Дэнни Трехо стало, начинает подташнивать. piratbit.org



    07-02-2015 21:25 Исчезновение Скачать торрент  

    Это же Vanish!!!piratbit.org



    08-02-2015 19:23 Исчезновение Скачать торрент  

    дааааа )) отстой полный )))piratbit.org



    18-02-2015 10:02 Исчезновение Скачать торрент  

    Кстати норм фильм на разок)piratbit.org



    19-02-2015 18:30 Исчезновение Скачать торрент  

    Как умудряются такое Г снимать? даже ученик 3 класса лучше сюжет придумаетpiratbit.org



      Дорогой пользователь! Огромная просьба, поблагодарите релизера, оцените раздачу и оставьте свои комментарий, если Вы скачали Исчезновение через торрент бесплатно!
      Комментировать посты могут только пользователи прошедшие не сложную регистрацию
      Показать сообщения:    

      Исчезновение через торрент
      Скачать бесплатно Исчезновение
      Исчезновение скачать торрент
      Исчезновение смотреть онлайн
      Cкачать фильм Исчезновение бесплатно
      Исчезновение скачать торрент в хорошем качестве
      Исчезновение смотреть онлайн бесплатно в хорошем качестве


      Вы не можете начинать темы
      Вы не можете отвечать на сообщения
      Вы не можете редактировать свои сообщения
      Вы не можете удалять свои сообщения
      Вы не можете голосовать в опросах
      Вы не можете прикреплять файлы к сообщениям
      Вы можете скачивать файлы