Присоединяйтесь к нам в Telegram!, здесь всегда актуальный адрес сайта, оперативная поддержка и многое другое!!

>

5.9

iTunes

7.4

iTunes

9.4

1 сезон

1

7.4

2 сезон

7.2

iTunes

7.3

iTunes

13

6.1

iTunes

8.3

Пиратка

30

ULTIMATE

pack

9.9

Лицензия

ВАЖНО

ИГРА 18+

pack

7.3

RePack

MK11

7.7

RePack

jed

7.8

RePack

fifa19

8.5

RePack

RDR2

RePack

NEED FOR SPEED™ PAYBACK

5 сезон

9 сезон

Бесстыжие 9 сезон

Все сериалы

все сериалы на PB.wtf

RePack

FAR CRY 5

Anonymous, добрый вечер, мы катастрофически не успеваем собрать деньги на оплату серверов, помогите нам пожалуйста 5,10,15р., для нас важна любая помощь . В качестве благодарности мы отключим Вам всю рекламу на сайте (укажите свой ник в строку Ваше имя)!

×
  
Magnet ссылка

88 / 88 (Эйприл Маллен / April Mullen) [2015, Канада, боевик, триллер, HDRip] DVO [МЕГАПЫХАРЬ и Элис] piratbit.org

88 через торрент piratbit.org

Размер: 1.37 GB | Добавлен: 6 лет 9 мес. назад | Торрент скачан:182 раза
Смотреть онлайн 88 | Скачать    Ребята, помогите собрать деньги на оплату серверов!!!

13-02-2015 06:10 88 Скачать торрент  

88 / 88
«Есть две стороны каждой истории»

  • Год выпуска: 2015
  • Страна: Канада
  • Жанр: боевик, триллер
  • Продолжительность: 01:28:38
  • Перевод: Любительское (двухголосое) [МЕГАПЫХАРЬ и Элис], перевод [МЕГАПЫХАРЬ и Ворон]

  • Режиссер: Эйприл Маллен / April Mullen
  • В ролях:

    Кэтрин Изабель (Gwen), Кристофер Ллойд (Cyrus), Кайл Шмид (Aster), Джесси МакКартни (Winks), Майкл Айронсайд (Sheriff Knowles), Тим Дойрон (Ty), Эйприл Маллен (Lemmy), Энтони Юлк (Jessop), Мики Мун (Izzy), Алан С. Петерсон (Bob), Джон Тенч (Roy), Джон Уайт (Marvin)

  • Описание:
    Молодая девушка приходит в себя в придорожной закусочной, не имея ни малейшего понятия, кто она и как там оказалась. Не успев в этом разобраться, она оказывается в самой гуще непонятных для неё событий. И она вынуждена, пробиваясь сквозь пули и кровь, по крупицам восстанавливать свою память...
  • Рейтинг:



  • Качество: HDRip
  • Формат: :AVI
  • Видео кодек: XviD
  • Аудио кодек: AC3
  • Видео: 720x304 (2.35:1), 2213 kbps, 23,976 fps, 0,422 bpp
  • Аудио: 2.0 / 48 kHz / 192 kbps / 16 bit
  • Релиз от: GEKADOL

    Код:

    General
    Complete name                            : D:\Фильмы\BB.2014.L2.HDRip.1400Mb(00h08m55s-00h09m31s).avi
    Format                                   : AVI
    Format/Info                              : Audio Video Interleave
    File size                                : 12.1 MiB
    Duration                                 : 42s 125ms
    Overall bit rate                         : 2 416 Kbps
    Writing application                      : VirtualDubMod 1.5.10.2 (build 2540/release)
    Writing library                          : Boilsoft AVI tool build 30012/release

    Video
    ID                                       : 0
    Format                                   : MPEG-4 Visual
    Format profile                           : Advanced Simple@L5
    Format settings, BVOP                    : 2
    Format settings, QPel                    : No
    Format settings, GMC                     : No warppoints
    Format settings, Matrix                  : Custom
    Codec ID                                 : XVID
    Codec ID/Hint                            : XviD
    Duration                                 : 42s 125ms
    Bit rate                                 : 2 213 Kbps
    Width                                    : 720 pixels
    Height                                   : 304 pixels
    Display aspect ratio                     : 2.35:1
    Frame rate                               : 23.976 fps
    Color space                              : YUV
    Chroma subsampling                       : 4:2:0
    Bit depth                                : 8 bits
    Scan type                                : Progressive
    Compression mode                         : Lossy
    Bits/(Pixel*Frame)                       : 0.422
    Stream size                              : 11.1 MiB (92%)
    Writing library                          : XviD 1.2.1 (UTC 2008-12-04)

    Audio
    ID                                       : 1
    Format                                   : AC-3
    Format/Info                              : Audio Coding 3
    Mode extension                           : CM (complete main)
    Codec ID                                 : 2000
    Duration                                 : 42s 125ms
    Bit rate mode                            : Constant
    Bit rate                                 : 192 Kbps
    Channel(s)                               : 2 channels
    Channel positions                        : Front: L R
    Sampling rate                            : 48.0 KHz
    Bit depth                                : 16 bits
    Compression mode                         : Lossy
    Delay relative to video                  : 11ms
    Stream size                              : 987 KiB (8%)
    Alignment                                : Split accross interleaves
    Interleave, duration                     : 42 ms (1.01 video frame)
    Interleave, preload duration             : 500 ms




    Скриншоты:



    piratbit.org



  • Скачать 88 через торрент https://pic1.kartinco.top/images/9/kshsd.jpg Скачать, смотреть онлайн 88 бесплантно в хорошем качестве Описание: Молодая девушка приходит в себя в придорожной закусочной, не имея ни малейшего понятия, кто она и как там оказалась. Не успев в ... 10 10 3
    Торрент: Зарегистрирован [2015-02-13 06:10] · скачан: 182 раз
    Статус: √ проверено
    Размер: 1.37 GB
    Как cкачать? Как скачать 88 через торрент | UTorrent

    % Раздел Тема Автор DL S | L
    Фильмы до 2000 г. [ 1.16 GB ] Чужие среди нас  / They Live [1988 DVDRip] feldeger Скачать
    1 | 0
    Архив (Зарубежный Rock) [ 801 MB ] ACDC - Дискография - 1976 - 1988 MP3 320 kbps uklopp Скачать
    2 | 0
    Фильмы до 2000 г. [ 1.45 GB ] Красная жара / Red Heat [1988 DVDRip Пиратка] Артронах Скачать
    1 | 0
    Фильмографии [ 52.04 GB ] Стивен Сигал. Фильмография 1 / Steven Seagal. Filmography 1 [1988-2010; боевые искусства ; DVDRip] nobana Скачать
    2 | 0
    Зарубежные сериалы [ 15.05 GB ] Все ненавидят Криса 4 Сезона / Everybody Hates Chris [2005-2009 TVRip Пиратка] toninfs Скачать
    1 | 0
    Кино СССР [ 3.28 GB ] Узник замка Иф / Uznik zamka If [1988 история ... DVDRip лицензия] Nolrav Скачать
    1 | 1
    Фильмы до 2000 г. [ 1.37 GB ] Эльвира - Повелительница тьмы / Elvira Mistress of the Dark [1988 DVDRip] Lindoza Скачать
    1 | 0


    Последний раз редактировалось: GEKADOL (2015-02-13 09:23), всего редактировалось 1 раз

    28-11-2019 20:33  

    Отключить всю рекламу на сайте

    13-02-2015 07:33 88 Скачать торрент  

    Длительность: 00:00:42
    sarcasticpiratbit.org



    13-02-2015 09:24 88 Скачать торрент  

    tokim писал(а):

    Длительность: 00:00:42
    sarcastic

    :rofle: piratbit.org



    13-02-2015 20:58 88 Скачать торрент  

    справа актер, это не Ваня из сериала "Восьмидесятые" piratbit.org



      Дорогой пользователь! Огромная просьба, поблагодарите релизера, оцените раздачу и оставьте свои комментарий, если Вы скачали 88 через торрент бесплатно!
      Комментировать посты могут только пользователи прошедшие не сложную регистрацию
      Показать сообщения:    

      88 через торрент
      Скачать бесплатно 88
      88 скачать торрент
      88 смотреть онлайн
      Cкачать фильм 88 бесплатно
      88 скачать торрент в хорошем качестве
      88 смотреть онлайн бесплатно в хорошем качестве


      Вы не можете начинать темы
      Вы не можете отвечать на сообщения
      Вы не можете редактировать свои сообщения
      Вы не можете удалять свои сообщения
      Вы не можете голосовать в опросах
      Вы не можете прикреплять файлы к сообщениям
      Вы можете скачивать файлы