Доктор Стрэндж

Лицензия

Добыча

Дубляж

Уэнсдэй

1 сезон

Тор

Дубляж

В эфире

Дубляж

Там, где раки поют

MVO

Властелин колец

1 сезон

Deluxe

pack

Рекомендуем

30

Пиратка

ВАЖНО

ВАЖНО

Ghostwire

Пиратка

jed

RePack

nioh2

RePack

RDR2

RePack

NEED FOR SPEED™ PAYBACK

RePack

скачать торрент

Кинопоиск HD

Острые козырьки 6 сезон

6 сезон

FAR CRY 6

RePack

скачать торрент

Лицензия

скачать торрент

MVO

1

1 сезон

скачать торрент

1 сезон

скачать торрент

Лицензия

  

88 / 88 (Эйприл Маллен / April Mullen) [2015, Канада, боевик, триллер, BDRip 1080p] DVO [МЕГАПЫХАРЬ и Элис]

88 через торрент piratbit.org

Размер: 5.58 GB | Добавлен: 7 лет 9 мес. назад | Торрент скачан:56 раз
Смотреть онлайн | Скачать   

13-02-2015 11:22 88 Скачать торрент  

Название: 88

Оригинальное название: 88

Год выхода: 2015

Страна: Канада

Студия: WANGO Films

Продолжительность: 01:28:38

Перевод: Любительский двухголосый [МЕГАПЫХАРЬ и Элис]

Жанр: Триллер, боевик

Режиссер: Эйприл Маллен

В ролях: Кэтрин Изабель, Кристофер Ллойд, Кайл Шмид, Джесси МакКартни, Майкл Айронсайд, Тим Дойрон, Эйприл Маллен, Энтони Юлк, Мики Мун, Алан С. Петерсон

Описание:

Молодая девушка приходит в себя в придорожной закусочной, не имея ни малейшего понятия, кто она и как там оказалась. Не успев в этом разобраться, она оказывается в самой гуще непонятных для неё событий. И она вынуждена, пробиваясь сквозь пули и кровь, по крупицам восстанавливать свою память...



Файл
Качество: BDRip 1080p
Формат:MKV
Видео кодек: AVC
Аудио кодек:AC3
Видео: 8172 Кбит/с, 1920x800, 23,976 fps
Звук: Русский (AC3, 2 ch, 192 Кбит/с)/ 48 kHz
Звук: английский (AC3, 6 ch, 640 Кбит/с)/ 48 kHz

Субтитры: Отсутствуют
Общее
Уникальный идентификатор : 210171713385927648740158012531018975426 (0x9E1D99812CF2FFA789853407D68248C2)
Полное имя : D:\Торенты\88.BDRip.1080p.mkv
Формат : Matroska
Версия формата : Version 4 / Version 2
Размер файла : 5,58 Гбайт
Продолжительность : 1 ч. 28 м.
Общий поток : 9007 Кбит/сек
Дата кодирования : UTC 2015-02-13 04:05:54
Программа кодирования : mkvmerge v7.2.0 ('On Every Street') 64bit built on Sep 13 2014 15:52:10
Библиотека кодирования : libebml v1.3.0 + libmatroska v1.4.1

Видео
Идентификатор : 1
Формат : AVC
Формат/Информация : Advanced Video Codec
Профиль формата : High@L4.1
Параметр CABAC формата : Да
Параметр ReFrames формата : 5 кадров
Идентификатор кодека : V_MPEG4/ISO/AVC
Продолжительность : 1 ч. 28 м.
Битрейт : 8172 Кбит/сек
Ширина : 1920 пикселей
Высота : 800 пикселей
Соотношение сторон : 2,40:1
Режим частоты кадров : Постоянный
Частота кадров : 23,976 кадра/сек
Цветовое пространство : YUV
Субдискретизация насыщенности : 4:2:0
Битовая глубина : 8 бит
Тип развёртки : Прогрессивная
Бит/(Пиксели*Кадры) : 0.222
Размер потока : 4,95 Гбайт (89%)
Библиотека кодирования : x264 core 144 r2525 40bb568
Настройки программы : cabac=1 / ref=5 / deblock=1:-1:-1 / analyse=0x3:0x113 / me=umh / subme=7 / psy=1 / psy_rd=1.00:0.00 / mixed_ref=1 / me_range=16 / chroma_me=1 / trellis=1 / 8x8dct=1 / cqm=0 / deadzone=21,11 / fast_pskip=1 / chroma_qp_offset=-2 / threads=12 / lookahead_threads=2 / sliced_threads=0 / nr=0 / decimate=1 / interlaced=0 / bluray_compat=0 / constrained_intra=0 / bframes=3 / b_pyramid=2 / b_adapt=2 / b_bias=0 / direct=3 / weightb=1 / open_gop=0 / weightp=2 / keyint=250 / keyint_min=23 / scenecut=40 / intra_refresh=0 / rc_lookahead=40 / rc=2pass / mbtree=1 / bitrate=8172 / ratetol=1.0 / qcomp=0.60 / qpmin=0 / qpmax=69 / qpstep=4 / cplxblur=20.0 / qblur=0.5 / vbv_maxrate=50000 / vbv_bufsize=50000 / nal_hrd=none / filler=0 / ip_ratio=1.40 / aq=1:1.00
Язык : English
Default : Да
Forced : Нет

Аудио #1
Идентификатор : 2
Формат : AC-3
Формат/Информация : Audio Coding 3
Расширение режима : CM (complete main)
Параметр Endianness формата : Big
Идентификатор кодека : A_AC3
Продолжительность : 1 ч. 28 м.
Вид битрейта : Постоянный
Битрейт : 192 Кбит/сек
Каналы : 2 канала
Расположение каналов : Front: L R
Частота : 48,0 КГц
Битовая глубина : 16 бит
Метод сжатия : С потерями
Размер потока : 122 Мбайт (2%)
Язык : Russian
Default : Да
Forced : Нет

Аудио #2
Идентификатор : 3
Формат : AC-3
Формат/Информация : Audio Coding 3
Расширение режима : CM (complete main)
Параметр Endianness формата : Big
Идентификатор кодека : A_AC3
Продолжительность : 1 ч. 28 м.
Вид битрейта : Постоянный
Битрейт : 640 Кбит/сек
Каналы : 6 каналов
Расположение каналов : Front: L C R, Side: L R, LFE
Частота : 48,0 КГц
Битовая глубина : 16 бит
Метод сжатия : С потерями
Размер потока : 406 Мбайт (7%)
Язык : English
Default : Нет
Forced : Нет



Скачать 88 через торрент http://s017.radikal.ru/i421/1502/54/bd01b915ff12.jpg Скачать, смотреть онлайн 88 бесплантно в хорошем качестве Описание: Молодая девушка приходит в себя в придорожной закусочной, не имея ни малейшего понятия, кто она и как там оказалась. Не успев в ... 10 10 3
Торрент: Зарегистрирован [2015-02-13 11:22] · скачан: 56 раз
Статус: T временная
Размер: 5.58 GB
Как cкачать? Как скачать 88 через торрент | UTorrent

% Раздел Тема Автор DL S | L
Фильмы 2015 (Звук TS, Cam, VO, DVO) [ 1.37 GB ] 88 / 88 | | HDRip GEKADOL Скачать
1 | 0

28-11-2019 20:33  


Отключить вcю реклaмy на сайте, в т.ч. и в плеере онлайн просмотра!

    Дорогой пользователь! Огромная просьба, поблагодарите релизера, оцените раздачу и оставьте свои комментарий, если Вы скачали 88 через торрент бесплатно!!
    Комментировать посты могут только пользователи прошедшие не сложную регистрацию
    Показать сообщения:    


    88 через торрент
    Скачать бесплатно 88
    88 скачать торрент
    88 смотреть онлайн
    Cкачать фильм 88 бесплатно
    88 скачать торрент в хорошем качестве
    88 смотреть онлайн бесплатно в хорошем качестве
    Вы не можете начинать темы
    Вы не можете отвечать на сообщения
    Вы не можете редактировать свои сообщения
    Вы не можете удалять свои сообщения
    Вы не можете голосовать в опросах
    Вы не можете прикреплять файлы к сообщениям
    Вы можете скачивать файлы
    88 / 88 [2015, Канада, боевик, триллер, BDRip 1080p] DVO [МЕГАПЫХАРЬ и Элис] смотреть онлайн, скачать торрент picoco.icu