Доктор Стрэндж

Лицензия

Добыча

Дубляж

Дом дракона

1 сезон

Тор

Дубляж

В эфире

Дубляж

Там, где раки поют

MVO

Властелин колец

1 сезон

Ultimate

pack

Рекомендуем

30

Пиратка

ВАЖНО

ВАЖНО

Ghostwire

Пиратка

jed

RePack

nioh2

RePack

RDR2

RePack

NEED FOR SPEED™ PAYBACK

RePack

скачать торрент

Кинопоиск HD

Острые козырьки 6 сезон

6 сезон

FAR CRY 6

RePack

скачать торрент

Лицензия

скачать торрент

MVO

1

1 сезон

скачать торрент

1 сезон

скачать торрент

Лицензия

  

Один выстрел / One Shot (Джон Лойд ) [2014, боевик, BDRip 720p, Любительский (одноголосый) [zamez]

Один выстрел через торрент piratbit.org

Размер: 3.44 GB | Добавлен: 7 лет 9 мес. назад | Торрент скачан:107 раз
Смотреть онлайн | Скачать   

15-02-2015 05:53 Один выстрел Скачать торрент  

Один выстрел / One Shot


ИНФОРМАЦИЯ:
Год выпуска:2014
Страна:США
Жанр:боевик
Продолжительность01:35:25
Перевод:Любительский (одноголосый) [zamez]
Режиссер:Джон Лойд

В Ролях:


Жак Грэй (Niles), Скотт Хэнкс (Antarah), Пол Хант (Jason Carpenter), Мэттью Риз (Kyle Matthews), Кевин Сорбо (Commander Gibson), Джэси Твисс (Tech Austen)

ОПИСАНИЕ:
Когда Кайл Мэттьюс - элитный снайпер из сил защиты Мира был пойман в плен на вражеской территории, его навыки были проверены в его стремлении выжить против всей армады Церулинских солдат. Ад намеревался стереть все человечество, но когда простая церулианка была застрелена и брошена ее же королем, Кайл должен сделать выбор между своей жизнью и смертью своего врага.

  • Мировая премьера:7 октября 2014

    ТЕХ.ДАННЫЕ:
    Качество: BDRip 720p
    Формат: MKV ✦ Видео кодек: AVC ✦ Аудио кодек: AC3, DTS
    Видео: 1280x720 (16:9)| 3351 kbps| 23,976 fps| 0,152 bpp
    Аудио №1: русский | 2.0 | 48 kHz | 192 kbps | 16 bit | ||
    Аудио №2: немецкий | 5.1 | 48 kHz | 1510 kbps | 24 bit |
    Навигация по главам: есть


    Код:

    General
    Unique ID                                : 225581911807186106852847709478690697238 (0xA9B57EF2652F45219E0FE120E7273016)
    Complete name                            : D:\Торенты\One.Shot.2014.L1.BDRip.720p.mkv
    Format                                   : Matroska
    Format version                           : Version 4 / Version 2
    File size                                : 3.44 GiB
    Duration                                 : 1h 35mn
    Overall bit rate                         : 5 156 Kbps
    Encoded date                             : UTC 2015-02-14 17:22:01
    Writing application                      : mkvmerge v7.3.0 ('Nouages') 64bit built on Oct 22 2014 18:53:34
    Writing library                          : libebml v1.3.0 + libmatroska v1.4.1

    Video
    ID                                       : 1
    Format                                   : AVC
    Format/Info                              : Advanced Video Codec
    Format profile                           : High@L4.1
    Format settings, CABAC                   : Yes
    Format settings, ReFrames                : 5 frames
    Codec ID                                 : V_MPEG4/ISO/AVC
    Duration                                 : 1h 35mn
    Bit rate                                 : 3 352 Kbps
    Width                                    : 1 280 pixels
    Height                                   : 720 pixels
    Display aspect ratio                     : 16:9
    Frame rate                               : 23.976 fps
    Color space                              : YUV
    Chroma subsampling                       : 4:2:0
    Bit depth                                : 8 bits
    Scan type                                : Progressive
    Bits/(Pixel*Frame)                       : 0.152
    Stream size                              : 2.23 GiB (65%)
    Writing library                          : x264 core 144 r2525 40bb568
    Encoding settings                        : cabac=1 / ref=5 / deblock=1:0:0 / analyse=0x3:0x113 / me=umh / subme=7 / psy=1 / psy_rd=1.00:0.00 / mixed_ref=1 / me_range=16 / chroma_me=1 / trellis=1 / 8x8dct=1 / cqm=0 / deadzone=21,11 / fast_pskip=0 / chroma_qp_offset=-2 / threads=12 / lookahead_threads=2 / sliced_threads=0 / nr=0 / decimate=1 / interlaced=0 / bluray_compat=0 / constrained_intra=0 / bframes=3 / b_pyramid=2 / b_adapt=1 / b_bias=0 / direct=1 / weightb=1 / open_gop=0 / weightp=2 / keyint=250 / keyint_min=23 / scenecut=40 / intra_refresh=0 / rc_lookahead=40 / rc=crf / mbtree=1 / crf=20.0 / qcomp=0.60 / qpmin=0 / qpmax=69 / qpstep=4 / ip_ratio=1.40 / aq=1:1.00
    Default                                  : Yes
    Forced                                   : Yes

    Audio #1
    ID                                       : 2
    Format                                   : AC-3
    Format/Info                              : Audio Coding 3
    Mode extension                           : CM (complete main)
    Codec ID                                 : A_AC3
    Duration                                 : 1h 35mn
    Bit rate mode                            : Constant
    Bit rate                                 : 192 Kbps
    Channel(s)                               : 2 channels
    Channel positions                        : Front: L R
    Sampling rate                            : 48.0 KHz
    Bit depth                                : 16 bits
    Compression mode                         : Lossy
    Stream size                              : 131 MiB (4%)
    Language                                 : Russian
    Default                                  : Yes
    Forced                                   : Yes

    Audio #2
    ID                                       : 3
    Format                                   : DTS
    Format/Info                              : Digital Theater Systems
    Codec ID                                 : A_DTS
    Duration                                 : 1h 35mn
    Bit rate mode                            : Constant
    Bit rate                                 : 1 510 Kbps
    Channel(s)                               : 6 channels
    Channel positions                        : Front: L C R, Side: L R, LFE
    Sampling rate                            : 48.0 KHz
    Bit depth                                : 24 bits
    Compression mode                         : Lossy
    Stream size                              : 1.01 GiB (29%)
    Language                                 : German
    Default                                  : No
    Forced                                   : No

    Menu
    00:00:00.000                             : en:00:00:00.000
    00:07:33.328                             : en:00:07:33.328
    00:14:41.923                             : en:00:14:41.923
    00:22:37.147                             : en:00:22:37.147
    00:31:46.822                             : en:00:31:46.822
    00:38:43.905                             : en:00:38:43.905
    00:47:28.054                             : en:00:47:28.054
    00:55:55.227                             : en:00:55:55.227
    01:04:06.718                             : en:01:04:06.718
    01:10:59.380                             : en:01:10:59.380
    01:19:23.384                             : en:01:19:23.384
    01:27:30.871                             : en:01:27:30.871

    Скриншоты:



  • Скачать Один выстрел через торрент http://i67.fastpic.ru/big/2015/0215/a9/5f82cd2a2b13f65a6bc98234d09a77a9.jpg Скачать, смотреть онлайн Один выстрел бесплантно в хорошем качестве Е:Когда Кайл Мэттьюс - элитный снайпер из сил защиты Мира был пойман в плен на вражеской территории, его навыки были проверены в его ... 5.5 10 2
    Торрент: Зарегистрирован [2015-02-15 05:53] · скачан: 107 раз
    Статус: √ проверено
    Размер: 3.44 GB
    Как cкачать? Как скачать Один выстрел через торрент | UTorrent

    % Раздел Тема Автор DL S | L
    Фильмы 2014 (Звук TS, Cam, VO, DVO) [ 1.37 GB ] Один выстрел / One Shot | | HDRip, Любительский (одноголосый Ворон Скачать
    1 | 0

    28-11-2019 20:33  


    Отключить вcю реклaмy на сайте, в т.ч. и в плеере онлайн просмотра!

      Дорогой пользователь! Огромная просьба, поблагодарите релизера, оцените раздачу и оставьте свои комментарий, если Вы скачали Один выстрел через торрент бесплатно!!
      Комментировать посты могут только пользователи прошедшие не сложную регистрацию
      Показать сообщения:    


      Один выстрел через торрент
      Скачать бесплатно Один выстрел
      Один выстрел скачать торрент
      Один выстрел смотреть онлайн
      Cкачать фильм Один выстрел бесплатно
      Один выстрел скачать торрент в хорошем качестве
      Один выстрел смотреть онлайн бесплатно в хорошем качестве
      Вы не можете начинать темы
      Вы не можете отвечать на сообщения
      Вы не можете редактировать свои сообщения
      Вы не можете удалять свои сообщения
      Вы не можете голосовать в опросах
      Вы не можете прикреплять файлы к сообщениям
      Вы можете скачивать файлы
      Один выстрел / One Shot [2014, боевик, BDRip 720p, Любительский [zamez] смотреть онлайн, скачать торрент picoco.icu