Доктор Стрэндж

Лицензия

Добыча

Дубляж

Дом дракона

1 сезон

Тор

Дубляж

В эфире

Дубляж

Там, где раки поют

MVO

Властелин колец

1 сезон

Ultimate

pack

Рекомендуем

30

Пиратка

ВАЖНО

ВАЖНО

Ghostwire

Пиратка

jed

RePack

nioh2

RePack

RDR2

RePack

NEED FOR SPEED™ PAYBACK

RePack

скачать торрент

Кинопоиск HD

Острые козырьки 6 сезон

6 сезон

FAR CRY 6

RePack

скачать торрент

Лицензия

скачать торрент

MVO

1

1 сезон

скачать торрент

1 сезон

скачать торрент

Лицензия

  

Мальчики миссис Браун / Mrs. Brown's Boys D'Movie (Бен Келлетт ) [2014, комедия, BDRip 1080p, Любительский (одноголосый) [Виктор Береговых]

Мальчики миссис Браун через торрент piratbit.org

Размер: 11.43 GB | Добавлен: 7 лет 9 мес. назад | Торрент скачан:8 раз
Смотреть онлайн | Скачать   

17-02-2015 06:03 Мальчики миссис Браун Скачать торрент  

Мальчики миссис Браун / Mrs. Brown's Boys D'Movie


ИНФОРМАЦИЯ:
Год выпуска:2014
Страна:Великобритания, Ирландия
Жанр:комедия
Продолжительность01:34:19
Перевод:Любительский (одноголосый) [Виктор Береговых]
Субтитры: русские, русские (М.Васильев), английские,
Режиссер:Бен Келлетт

В Ролях:
Брендан О’Кэрролл (Agnes Brown), Дженнифер Гибни (Cathy Brown), Эйлиш О’Кэрролл (Winnie McGoogan), Дэнни О’Кэрролл (Buster Brady), Фиона О’Кэрролл (Maria Brown), Пэдди Хулихан (Dermot Brown), Гари Халливуд (Dino Doyle), Джимми Гибни (Father McBride), Джэми О’Кэрролл (Bono Brown), Дермот О’Нилл (Grandad Brown), Пэт Шилдс (Mark Brown), Аманда Вудс (Betty Brown)

ОПИСАНИЕ:
На этот раз Браунам приходится выяснять отношения с налоговой инспекцией, коррумпированными чиновниками и русской мафией.

  • Мировая премьера:27 июня 2014

    ТЕХ.ДАННЫЕ:
    Качество: BDRip 1080p
    Формат: MKV ✦ Видео кодек: AVC ✦ Аудио кодек: AC3, DTS
    Видео: 1920x1040 (16:9)| 15294 kbps| 23,976 fps| 0,319 bpp
    Аудио №1: русский | 2.0 | 48 kHz | 192 kbps | 16 bit | ||
    Аудио №2: английский | 5.1 | 48 kHz | 1510 kbps | 24 bit |
    Навигация по главам: есть


    Код:

    General
    Unique ID                                : 190911692274111782988827183172155772857 (0x8FA041262772E7DB82E6EE6296368FB9)
    Complete name                            : D:\Торенты\Mrs.Browns.Boys.D.Movie.2014.Blu.Ray.1080p.CINEMANIA.mkv
    Format                                   : Matroska
    Format version                           : Version 4 / Version 2
    File size                                : 11.4 GiB
    Duration                                 : 1h 34mn
    Overall bit rate                         : 17.3 Mbps
    Movie name                               : Release Group CINEMANIA
    Encoded date                             : UTC 2014-11-04 15:05:33
    Writing application                      : mkvmerge v7.3.0 ('Nouages') 64bit built on Oct 22 2014 18:53:34
    Writing library                          : libebml v1.3.0 + libmatroska v1.4.1

    Video
    ID                                       : 1
    Format                                   : AVC
    Format/Info                              : Advanced Video Codec
    Format profile                           : High@L4.1
    Format settings, CABAC                   : Yes
    Format settings, ReFrames                : 4 frames
    Codec ID                                 : V_MPEG4/ISO/AVC
    Duration                                 : 1h 34mn
    Bit rate                                 : 15.3 Mbps
    Width                                    : 1 920 pixels
    Height                                   : 1 040 pixels
    Display aspect ratio                     : 16:9
    Frame rate                               : 23.976 fps
    Color space                              : YUV
    Chroma subsampling                       : 4:2:0
    Bit depth                                : 8 bits
    Scan type                                : Progressive
    Bits/(Pixel*Frame)                       : 0.319
    Stream size                              : 10.1 GiB (88%)
    Title                                    : Release Group CINEMANIA
    Writing library                          : x264 core 142 r2479kMod dd79a61
    Encoding settings                        : cabac=1 / ref=4 / deblock=1:-3:-3 / analyse=0x3:0x133 / me=umh / subme=10 / psy=1 / fade_compensate=0.00 / psy_rd=1.00:0.00 / mixed_ref=1 / me_range=24 / chroma_me=1 / trellis=2 / 8x8dct=1 / cqm=0 / deadzone=21,11 / fast_pskip=0 / chroma_qp_offset=-2 / threads=18 / lookahead_threads=4 / sliced_threads=0 / nr=0 / decimate=0 / interlaced=0 / bluray_compat=0 / constrained_intra=0 / fgo=0 / bframes=10 / b_pyramid=2 / b_adapt=2 / b_bias=0 / direct=3 / weightb=1 / open_gop=0 / weightp=2 / keyint=250 / keyint_min=23 / scenecut=40 / intra_refresh=0 / rc=crf / mbtree=0 / crf=17.5000 / qcomp=0.75 / qpmin=0 / qpmax=69 / qpstep=4 / ip_ratio=1.30 / pb_ratio=1.20 / aq=1:0.80
    Language                                 : English
    Default                                  : Yes
    Forced                                   : No

    Audio #1
    ID                                       : 2
    Format                                   : AC-3
    Format/Info                              : Audio Coding 3
    Mode extension                           : CM (complete main)
    Codec ID                                 : A_AC3
    Duration                                 : 1h 34mn
    Bit rate mode                            : Constant
    Bit rate                                 : 192 Kbps
    Channel(s)                               : 2 channels
    Channel positions                        : Front: L R
    Sampling rate                            : 48.0 KHz
    Bit depth                                : 16 bits
    Compression mode                         : Lossy
    Stream size                              : 130 MiB (1%)
    Title                                    : В.Береговых
    Language                                 : Russian
    Default                                  : Yes
    Forced                                   : Yes

    Audio #2
    ID                                       : 3
    Format                                   : DTS
    Format/Info                              : Digital Theater Systems
    Codec ID                                 : A_DTS
    Duration                                 : 1h 34mn
    Bit rate mode                            : Constant
    Bit rate                                 : 1 510 Kbps
    Channel(s)                               : 6 channels
    Channel positions                        : Front: L C R, Side: L R, LFE
    Sampling rate                            : 48.0 KHz
    Bit depth                                : 24 bits
    Compression mode                         : Lossy
    Stream size                              : 1 019 MiB (9%)
    Language                                 : English
    Default                                  : No
    Forced                                   : No

    Text #1
    ID                                       : 4
    Format                                   : UTF-8
    Codec ID                                 : S_TEXT/UTF8
    Codec ID/Info                            : UTF-8 Plain Text
    Language                                 : Russian
    Default                                  : Yes
    Forced                                   : Yes

    Text #2
    ID                                       : 5
    Format                                   : UTF-8
    Codec ID                                 : S_TEXT/UTF8
    Codec ID/Info                            : UTF-8 Plain Text
    Title                                    : М.Васильев
    Language                                 : Russian
    Default                                  : No
    Forced                                   : No

    Text #3
    ID                                       : 6
    Format                                   : UTF-8
    Codec ID                                 : S_TEXT/UTF8
    Codec ID/Info                            : UTF-8 Plain Text
    Language                                 : English
    Default                                  : No
    Forced                                   : No

    Menu
    00:00:00.000                             : en:00:00:00.000
    00:08:24.963                             : en:00:08:24.963
    00:17:06.901                             : en:00:17:06.901
    00:24:57.413                             : en:00:24:57.413
    00:32:13.849                             : en:00:32:13.849
    00:41:11.260                             : en:00:41:11.260
    00:50:31.320                             : en:00:50:31.320
    00:57:11.345                             : en:00:57:11.345
    01:06:59.098                             : en:01:06:59.098
    01:16:09.732                             : en:01:16:09.732
    01:24:06.458                             : en:01:24:06.458
    01:30:23.710                             : en:01:30:23.710

    Скриншоты:



  • Скачать Мальчики миссис Браун через торрент http://i68.fastpic.ru/big/2015/0217/de/8100247c5b92d67eb005a441906a1ade.jpg Скачать, смотреть онлайн Мальчики миссис Браун бесплантно в хорошем качестве Е:На этот раз Браунам приходится выяснять отношения с налоговой инспекцией, коррумпированными чиновниками и русской мафией. Мировая ... 10 10 1
    Торрент: Зарегистрирован [2015-02-17 06:04] · скачан: 8 раз
    Статус: T временная
    Размер: 11.43 GB
    Как cкачать? Как скачать Мальчики миссис Браун через торрент | UTorrent

    % Раздел Тема Автор DL S | L
    T Фильмы 2014 (Звук TS, Cam, VO, DVO) [ 2.06 GB ] Мальчики миссис Браун / Mrs. Brown's Boys D'Movie | Мальчики миссис Браун / Mrs. Brown's Boys D'Movie | HDRip, Любительский (одноголосый Ворон Скачать
    1 | 0
    T Фильмы 2014 (Звук TS, Cam, VO, DVO) [ 1.37 GB ] Мальчики миссис Браун / Mrs. Brown's Boys D'Movie | Мальчики миссис Браун / Mrs. Brown's Boys D'Movie | HDRip, Любительский (одноголосый Ворон Скачать
    1 | 0

    28-11-2019 20:33  


    Отключить вcю реклaмy на сайте, в т.ч. и в плеере онлайн просмотра!

      Дорогой пользователь! Огромная просьба, поблагодарите релизера, оцените раздачу и оставьте свои комментарий, если Вы скачали Мальчики миссис Браун через торрент бесплатно!!
      Комментировать посты могут только пользователи прошедшие не сложную регистрацию
      Показать сообщения:    


      Мальчики миссис Браун через торрент
      Скачать бесплатно Мальчики миссис Браун
      Мальчики миссис Браун скачать торрент
      Мальчики миссис Браун смотреть онлайн
      Cкачать фильм Мальчики миссис Браун бесплатно
      Мальчики миссис Браун скачать торрент в хорошем качестве
      Мальчики миссис Браун смотреть онлайн бесплатно в хорошем качестве
      Вы не можете начинать темы
      Вы не можете отвечать на сообщения
      Вы не можете редактировать свои сообщения
      Вы не можете удалять свои сообщения
      Вы не можете голосовать в опросах
      Вы не можете прикреплять файлы к сообщениям
      Вы можете скачивать файлы
      Мальчики миссис Браун / Mrs. Brown's Boys D'Movie [2014, комедия, BDRip 1080p, Любительский [Виктор Береговых] смотреть онлайн, скачать торрент picoco.icu