Присоединяйтесь к нам в Telegram!, здесь всегда актуальный адрес сайта, оперативная поддержка и многое другое!!

>

5.9

iTunes

7.4

iTunes

9.4

1 сезон

1

7.4

2 сезон

7.2

iTunes

7.3

1 сезон

13

6.1

iTunes

8.3

GOG

30

ULTIMATE

pack

9.9

Лицензия

ВАЖНО

ИГРА 18+

pack

7.3

RePack

MK11

7.7

RePack

jed

7.8

RePack

fifa19

8.5

RePack

RDR2

RePack

NEED FOR SPEED™ PAYBACK

5 сезон

9 сезон

Бесстыжие 9 сезон

Все сериалы

все сериалы на PB.wtf

RePack

FAR CRY 5

Anonymous, добрый день, мы катастрофически не успеваем собрать деньги на оплату серверов, помогите нам пожалуйста 5,10,15р., для нас важна любая помощь . В качестве благодарности мы отключим Вам всю рекламу на сайте (укажите свой ник в строку Ваше имя)!

×
  
Magnet ссылка

Трейсеры / Tracers (Даниэль Бенмаур / Daniel Benmayor) [2015, США, боевик, WEBRip, Любительский (двухголосый)] piratbit.org

Трейсеры через торрент piratbit.org

Размер: 742 MB | Добавлен: 6 лет 9 мес. назад | Торрент скачан:539 раз
Смотреть онлайн Трейсеры | Скачать    Ребята, помогите собрать деньги на оплату серверов!!!

21-02-2015 21:27 Трейсеры Скачать торрент  

Трейсеры / Tracers

Год выпуска: 2015
Страна: США
Жанр: боевик
Продолжительность: 01:28:20
Перевод: Любительский (двухголосый)
Субтитры: Отсутствует
Режиссер: Даниэль Бенмаур / Daniel Benmayor
В ролях:


Тэйлор Лотнер (Cam), Мари Авгеропулос (Nikki), Рафи Гаврон (Dylan), Адам Рэйнер (Miller), Сэм Медина (Hu), Доа Моа (Skinny Jeans), Лучиано Акуна мл. (Tate), Даг Драклер (Rough man), Эндрю Элвис Миллер (Messenger #2), Эдвард М. Келахэн (Newark Police Officer), Тил Кейт (Dancer), Скотт Джонсен (Detective)

Описание:
Фильм расскажет историю парня по имени Кэм - велокурьера, находящегося в долгу перед некоей преступной группировкой. В один из дней он сбивает на своем велосипеде сексуальную незнакомку, которая соблазняет его и увлекает в мир паркура.

Рейтинг:

MPAA: PG-13 - Детям до 13 лет просмотр не желателен
Качество: WEBRip
Формат: AVI
Видео кодек:XviD
Аудио кодек:AC3
Видео: XviD, 640x480 (4:3), 926 kbps, 23,976 fps, 0,126 bpp
Аудио: AC3 / 2.0 / 48 kHz / 192 kbps / 16 bit - Любительский двухголосый [RAIM & NASTR.]

General
Complete name : D:\_uTorrent_\Tracers.2015.WEBRip.L2.avi
Format : AVI
Format/Info : Audio Video Interleave
File size : 742 MiB
Duration : 1h 28mn
Overall bit rate : 1 174 Kbps
Writing application : VirtualDubMod 1.5.10.2 (build 2540/release)
Writing library : VirtualDubMod build 2540/release

Video
ID : 0
Format : MPEG-4 Visual
Format profile : Advanced Simple@L5
Format settings, BVOP : 2
Format settings, QPel : No
Format settings, GMC : No warppoints
Format settings, Matrix : Default (H.263)
Codec ID : XVID
Codec ID/Hint : XviD
Duration : 1h 28mn
Bit rate : 927 Kbps
Width : 640 pixels
Height : 480 pixels
Display aspect ratio : 4:3
Frame rate : 23.976 fps
Color space : YUV
Chroma subsampling : 4:2:0
Bit depth : 8 bits
Scan type : Progressive
Compression mode : Lossy
Bits/(Pixel*Frame) : 0.126
Stream size : 586 MiB (79%)
Writing library : XviD 1.2.1 (UTC 2008-12-04)

Audio
ID : 1
Format : AC-3
Format/Info : Audio Coding 3
Mode extension : CM (complete main)
Codec ID : 2000
Duration : 1h 28mn
Bit rate mode : Constant
Bit rate : 192 Kbps
Channel(s) : 2 channels
Channel positions : Front: L R
Sampling rate : 48.0 KHz
Bit depth : 16 bits
Compression mode : Lossy
Stream size : 121 MiB (16%)
Alignment : Split accross interleaves

[/code]
piratbit.org



Скачать Трейсеры через торрент http://i66.fastpic.ru/big/2015/0222/b9/5a958f60333085435aa36d5213d43bb9.png Скачать, смотреть онлайн Трейсеры бесплантно в хорошем качестве Описание: Фильм расскажет историю парня по имени Кэм - велокурьера, находящегося в долгу перед некоей преступной группировкой. В один из ... 9.5 10 22
Торрент: Зарегистрирован [2015-02-21 21:27] · скачан: 539 раз
Статус: T временная
Размер: 742 MB
Как cкачать? Как скачать Трейсеры через торрент | UTorrent

% Раздел Тема Автор DL S | L
T Фильмы (WEB-DL 720p, 1080p) [ 3.11 GB ] Трейсеры / Tracers [2015 WEB-DL 720p Любительский [Пиратская студия дубляжа] Ворон Скачать
1 | 0
T Фильмы 2015 (Звук TS, Cam, VO, DVO) [ 1.37 GB ] Трейсеры / Tracers [2015 WEB-DLRip Любительский [Пиратская студия дубляжа] Ворон Скачать
1 | 0
Фильмы без перевода [ 709 MB ] Трейсеры / Tracers [2015 DVDRip] [ENG] killermax2013 Скачать
1 | 0

28-11-2019 20:33  

Отключить всю рекламу на сайте

21-02-2015 21:52 Трейсеры Скачать торрент  

окай пойду собью на машине чувиху, чтобы она меня соблазнила и тдpiratbit.org



21-02-2015 22:04 Трейсеры Скачать торрент  

лютая хрень,не смотрите.piratbit.org



22-02-2015 00:53 Трейсеры Скачать торрент  

Этаж дядька с сумеркоф..piratbit.org



22-02-2015 04:25 Трейсеры Скачать торрент  

а девица увлеклась им и стала велокурьеромpiratbit.org



23-02-2015 11:05 Трейсеры Скачать торрент  

Не. Он её укусил и она стала велокурьером. Волосатым велокурьером.
Чёт решил не качать.piratbit.org



    Дорогой пользователь! Огромная просьба, поблагодарите релизера, оцените раздачу и оставьте свои комментарий, если Вы скачали Трейсеры через торрент бесплатно!
    Комментировать посты могут только пользователи прошедшие не сложную регистрацию
    Показать сообщения:    

    Трейсеры через торрент
    Скачать бесплатно Трейсеры
    Трейсеры скачать торрент
    Трейсеры смотреть онлайн
    Cкачать фильм Трейсеры бесплатно
    Трейсеры скачать торрент в хорошем качестве
    Трейсеры смотреть онлайн бесплатно в хорошем качестве


    Вы не можете начинать темы
    Вы не можете отвечать на сообщения
    Вы не можете редактировать свои сообщения
    Вы не можете удалять свои сообщения
    Вы не можете голосовать в опросах
    Вы не можете прикреплять файлы к сообщениям
    Вы можете скачивать файлы