Присоединяйтесь к нам в Telegram!, здесь всегда актуальный адрес сайта, оперативная поддержка и многое другое!!

>

5.9

iTunes

7.4

iTunes

9.4

1 сезон

1

7.4

2 сезон

7.2

iTunes

7.3

1 сезон

13

6.1

iTunes

8.3

Пиратка

30

ULTIMATE

pack

9.9

Лицензия

ВАЖНО

ИГРА 18+

pack

7.3

RePack

MK11

7.7

RePack

jed

7.8

RePack

fifa19

8.5

RePack

RDR2

RePack

NEED FOR SPEED™ PAYBACK

5 сезон

9 сезон

Бесстыжие 9 сезон

Все сериалы

все сериалы на PB.wtf

RePack

FAR CRY 5

Anonymous, добрый вечер, мы катастрофически не успеваем собрать деньги на оплату серверов, помогите нам пожалуйста 5,10,15р., для нас важна любая помощь . В качестве благодарности мы отключим Вам всю рекламу на сайте (укажите свой ник в строку Ваше имя)!

×
  
Magnet ссылка

Посторонний / The Intruders (Адам Мэсси / Adam Massey) [2015, Канада, триллер, WEB-DLRip, Любительский (одноголосый)] piratbit.org

Посторонний через торрент piratbit.org

Размер: 1.39 GB | Добавлен: 6 лет 9 мес. назад | Торрент скачан:130 раз
Смотреть онлайн Посторонний | Скачать    Ребята, помогите собрать деньги на оплату серверов!!!

02-03-2015 21:07 Посторонний Скачать торрент  

Посторонний / The Intruders

Год выпуска: 2015
Страна: Канада
Жанр: триллер
Продолжительность: 01:32:07
Перевод: Любительский (одноголосый)
Субтитры: Отсутствует
Режиссер: Адам Мэсси / Adam Massey
В ролях:


Миранда Косгров (Rose Halshford), Донал Лог (Jerry Halshford), Том Сайзмор (Howard Markby), Дженесса Грант (Leila Markby), Остин Роберт Батлер (Noah Henry), Kelly Boegel (Sophia Halshford), Клер Каларко (Cheri Garrison), Майкл Лакетт (Marcus Garrison), Jazmin Paradis (Rachel Winacott), Маккензи Болл (Charlie), Майкл Винсент Дагостино (Medic), Дуглас Е. Дэвидсон (Architectural Client)

Описание:
После трагической потери матери, девочка-подросток, пытается раскрыть темные тайны ее нового дома, несмотря на то, что отец не верит ей...

Рейтинг:

Качество: WEB-DLRip
Формат: AVI
Видео кодек:XviD
Аудио кодек:AC3
Видео: XviD, 720x304 (2.35:1), 1685 kbps, 23,976 fps, 0,321 bpp
Аудио №1: AC3 / 2.0 / 48 kHz / 192 kbps / 16 bit - Любительский одноголосый [PashaUp]
Аудио №2: AC3 / 2.0 / 48 kHz / 192 kbps / 16 bit - (оригинал)


General
Complete name : D:\_uTorrent_\The.Intruders.2015.L1.WEBDLRip.avi
Format : AVI
Format/Info : Audio Video Interleave
File size : 1.39 GiB
Duration : 1h 32mn
Overall bit rate : 2 166 Kbps
Writing application : VirtualDubMod 1.5.10.3 | www.virtualdub-fr.org || (build 2550/release)
Writing library : VirtualDubMod build 2550/release

Video
ID : 0
Format : MPEG-4 Visual
Format profile : Advanced Simple@L5
Format settings, BVOP : 2
Format settings, QPel : No
Format settings, GMC : No warppoints
Format settings, Matrix : Default (MPEG)
Codec ID : XVID
Codec ID/Hint : XviD
Duration : 1h 32mn
Bit rate : 1 685 Kbps
Width : 720 pixels
Height : 304 pixels
Display aspect ratio : 2.35:1
Frame rate : 23.976 fps
Color space : YUV
Chroma subsampling : 4:2:0
Bit depth : 8 bits
Scan type : Progressive
Compression mode : Lossy
Bits/(Pixel*Frame) : 0.321
Stream size : 1.08 GiB (78%)
Writing library : XviD 1.2.1 (UTC 2008-12-04)

Audio #1
ID : 1
Format : AC-3
Format/Info : Audio Coding 3
Mode extension : CM (complete main)
Codec ID : 2000
Duration : 1h 32mn
Bit rate mode : Constant
Bit rate : 192 Kbps
Channel(s) : 2 channels
Channel positions : Front: L R
Sampling rate : 48.0 KHz
Bit depth : 16 bits
Compression mode : Lossy
Stream size : 127 MiB (9%)
Alignment : Split accross interleaves

Audio #2
ID : 2
Format : AC-3
Format/Info : Audio Coding 3
Mode extension : CM (complete main)
Codec ID : 2000
Duration : 1h 32mn
Bit rate mode : Constant
Bit rate : 192 Kbps
Channel(s) : 2 channels
Channel positions : Front: L R
Sampling rate : 48.0 KHz
Bit depth : 16 bits
Compression mode : Lossy
Stream size : 127 MiB (9%)
Alignment : Split accross interleaves

[/code]
piratbit.org



Скачать Посторонний через торрент http://i64.fastpic.ru/big/2015/0303/10/7bb4d5b223b81cfbc7d081f5cf3e5a10.png Скачать, смотреть онлайн Посторонний бесплантно в хорошем качестве Описание: После трагической потери матери, девочка-подросток, пытается раскрыть темные тайны ее нового дома, несмотря на то, что отец не ... 10 10 2
Торрент: Зарегистрирован [2015-03-02 21:07] · скачан: 130 раз
Статус: T временная
Размер: 1.39 GB
Как cкачать? Как скачать Посторонний через торрент | UTorrent

% Раздел Тема Автор DL S | L
Фильмы (DVD фильмы) [ 5.4 GB ] Посторонний / The Intruders [2015 DVD9] R5 voovaz Скачать
1 | 0
Фильмы 2015 [DVDrip, WEB-DLRip, HDrip] [ 1.37 GB ] Посторонний / The Intruders [2015 WEB-DLRip ] Ворон Скачать
1 | 0

28-11-2019 20:33  

Отключить всю рекламу на сайте

    Дорогой пользователь! Огромная просьба, поблагодарите релизера, оцените раздачу и оставьте свои комментарий, если Вы скачали Посторонний через торрент бесплатно!
    Комментировать посты могут только пользователи прошедшие не сложную регистрацию
    Показать сообщения:    

    Посторонний через торрент
    Скачать бесплатно Посторонний
    Посторонний скачать торрент
    Посторонний смотреть онлайн
    Cкачать фильм Посторонний бесплатно
    Посторонний скачать торрент в хорошем качестве
    Посторонний смотреть онлайн бесплатно в хорошем качестве


    Вы не можете начинать темы
    Вы не можете отвечать на сообщения
    Вы не можете редактировать свои сообщения
    Вы не можете удалять свои сообщения
    Вы не можете голосовать в опросах
    Вы не можете прикреплять файлы к сообщениям
    Вы можете скачивать файлы