1 сезон

3 сезон

iTunes

1

iTunes

DUB Netflix

iTunes

13

1 сезон

RePack

30

Deluxe

pack

Легкие деньги

ВАЖНО

ИГРА 18+

pack

RePack

MK11

RePack

jed

RePack

fifa19

RePack

RDR2

RePack

NEED FOR SPEED™ PAYBACK

4 сезон

9 сезон

Бесстыжие 9 сезон

Все сериалы

все сериалы на PB.wtf

RePack

FAR CRY 5

Anonymous, доброй ночи, мы не успеваем до 1 числа собрать деньги на оплату серверов, помогите нам пожалуйста в это трудное время. В качестве благодарности мы отключим Вам всю рекламу на сайте (укажите свой ник в строку Ваше имя)!

×
  
Magnet ссылка

Интерны (Радда Новикова) (12 сезон: 1-15 серия из 15) [2015 г., Комедия, ситком, медицина, WEB-DLRip 720p] piratbit.org

Интерны через торрент piratbit.org

Размер: 7.89 GB | Добавлен: 6 лет 3 мес. назад | Торрент скачан:1001 раз
Скачать  

05-03-2015 18:12 Интерны Скачать торрент  

Интерны
Год выпуска: 2015
Страна: Россия
Жанр: Комедия, ситком, медицина
Продолжительность: ~ 00:26:00

Режиссер: Радда Новикова



В ролях: Иван Охлобыстин, Илья Глинников, Александр Ильин мл., Вадим Демчог, Аглая Тарасова, Юлия Назаренко, Светлана Камынина, Яна Гурьянова, Один Ланд Байрон, Татьяна Лянник, Светлана Пермякова, Азамат Мусагалиев, Александр Ляпин

Описание: Некоторые люди в белых халатах уверены, что сердце - всего лишь мышца, качающая кровь. Но только не герои нового сезона «Интернов». На вверенном доктору Быкову этаже кипят пушкинские страсти: интриги, секс и любовные треугольники стали нормой жизни . А перчинки всему этому добавят шаманы в палатах, жены с почасовой оплатой и всего один, но зато настоящий пистолет. Все смешалось в отделении доктора Быкова!

Качество: WEB-DLRip 720p
Формат: MKV
Видео кодек: AVC
Аудио кодек: AC3
Видео: 1280x720 (16:9), 25.000 fps, 2 891 Kbps (0.125 bit/pixel)
Аудио#1: 48.0 KHz, 2 ch, 192 Kbps, CBR (Russian)
Финал
Общее
Уникальный идентификатор : 189045437868977441209311728463960645661 (0x8E38D3B3EC7018369ECF73C26404A01D)
Полное имя : F:\Фильмы торренты\Interny.(12.sezon).2015.WEB-DL.(720p).MediaClub\Interny-12.(01.seriya).2015.WEB-DL.(720p).MediaClub.mkv
Формат : Matroska
Версия формата : Version 2
Размер файла : 566 Мбайт
Продолжительность : 24 м.
Общий поток : 3170 Кбит/сек
Название фильма : Interny-12.(01.seriya).2015.WEB-DL.(720p).MediaClub
Дата кодирования : UTC 2015-02-09 17:08:46
Программа кодирования : mkvmerge v5.8.0 ('No Sleep / Pillow') built on Sep 2 2012 15:37:04
Библиотека кодирования : libebml v1.2.3 + libmatroska v1.3.0

Видео
Идентификатор : 1
Формат : AVC
Формат/Информация : Advanced Video Codec
Профиль формата : High@L4.0
Параметр CABAC формата : Да
Параметр ReFrames формата : 8 кадров
Идентификатор кодека : V_MPEG4/ISO/AVC
Продолжительность : 24 м.
Битрейт : 2915 Кбит/сек
Ширина : 1280 пикселей
Высота : 720 пикселей
Соотношение сторон : 16:9
Режим частоты кадров : Постоянный
Частота кадров : 25,000 кадров/сек
Цветовое пространство : YUV
Субдискретизация насыщенности : 4:2:0
Битовая глубина : 8 бит
Тип развёртки : Прогрессивная
Бит/(Пиксели*Кадры) : 0.126
Размер потока : 520 Мбайт (92%)
Библиотека кодирования : x264 core 136
Настройки программы : cabac=1 / ref=8 / deblock=1:-1:-1 / analyse=0x3:0x133 / me=umh / subme=9 / psy=1 / psy_rd=1.00:0.15 / mixed_ref=1 / me_range=16 / chroma_me=1 / trellis=2 / 8x8dct=1 / cqm=0 / deadzone=21,11 / fast_pskip=1 / chroma_qp_offset=-3 / threads=18 / lookahead_threads=1 / sliced_threads=0 / nr=0 / decimate=1 / interlaced=0 / bluray_compat=0 / constrained_intra=0 / bframes=3 / b_pyramid=2 / b_adapt=2 / b_bias=0 / direct=3 / weightb=1 / open_gop=0 / weightp=2 / keyint=100 / keyint_min=10 / scenecut=40 / intra_refresh=0 / rc_lookahead=60 / rc=crf / mbtree=1 / crf=17.0 / qcomp=0.60 / qpmin=0 / qpmax=69 / qpstep=4 / vbv_maxrate=3600 / vbv_bufsize=3600 / crf_max=0.0 / nal_hrd=none / ip_ratio=1.40 / aq=1:1.00
Default : Да
Forced : Да

Аудио
Идентификатор : 2
Формат : AC-3
Формат/Информация : Audio Coding 3
Расширение режима : CM (complete main)
Параметр Endianness формата : Big
Идентификатор кодека : A_AC3
Продолжительность : 24 м.
Вид битрейта : Постоянный
Битрейт : 192 Кбит/сек
Каналы : 2 канала
Расположение каналов : Front: L R
Частота : 48,0 КГц
Битовая глубина : 16 бит
Метод сжатия : С потерями
Задержка видео : -80 мс.
Размер потока : 34,3 Мбайт (6%)
Язык : Russian
Default : Да
Forced : Да

piratbit.org



Скачать Интерны через торрент https://pic1.kartinco.top/images/10/q87hl.jpg Скачать фильм Интерны через торрент бесплантно в хорошем качестве Описание: Некоторые люди в белых халатах уверены, что сердце - всего лишь мышца, качающая кровь. Но только не герои нового сезона ... 9.9 10 17
Info! Золотая раздача, скачанное не засчитывается.
Торрент: Зарегистрирован [2015-03-05 18:12] · скачан: 1 001 раз
Статус: √ проверено
Размер: 7.89 GB
Как cкачать? Как скачать Интерны через торрент | UTorrent

% Раздел Тема Автор DL S | L
TNT serials [ 37.67 GB ] Интерны 1-7 сезоны/ 1-140 серий из 140 [2010-2012 DVDRip HQSATRip Оригинал] dotWizard Скачать
1 | 1
Порно фильмы HD [ 6.43 GB ] Мой Анальный Интерн / My Anal Intern [2016 Gonzo Anal WEB-DL 1080p Оригинальный] nn99nn Скачать
1 | 0
TNT serials [ 13.67 GB ] Интерны [Максим Пежемский Заур Болотаев Милан Килибарда 2010 комедийный сериал DVDRip] segg@ Скачать
1 | 0
TNT serials [ 5.81 GB ] Интерны / Сезон: 14 / Серии 1-20 из 20 [2016 Россия SATRip) GEKADOL Скачать
1 | 0
TNT serials [ 83.66 GB ] Интерны + Фильм о фильме 1-2 части / Сезон: 1 -14 / Серии: 1-280 из 280 [2010-2016 DVDRip SATRip WEB-DLRip] den7z8 Скачать
3 | 1
TNT serials [ 12.08 GB ] Интерны [2016 DVB Оригинал] Бумер Скачать
1 | 0
TNT serials [ 7.68 GB ] Интерны [2012 Комедийный сериал SATRip] wekotila Скачать
1 | 0

28-11-2019 20:33  

Отключить всю рекламу на сайте

05-03-2015 18:42 Интерны Скачать торрент  

Зачем выкладывать 15 серию если она 14, попахивает гнильцойpiratbit.org



05-03-2015 19:24 Интерны Скачать торрент  

ASheR121 писал(а):

Зачем выкладывать 15 серию если она 14, попахивает гнильцой

Вы ничего не перепутали? :jest3:piratbit.org



11-03-2015 10:16 Интерны Скачать торрент  

в соседней раздаче пишут, что 20 серий в сезоне, у вас 15 серий, так сколько же верно?piratbit.org



16-03-2015 15:42 Интерны Скачать торрент  

А где пропало продолжение ? Или 15 серия это последняя ? Кто скажет?piratbit.org



    Дорогой пользователь! Огромная просьба, поблагодарите релизера, оцените раздачу и оставьте свои комментарий, если Вы скачали Интерны через торрент бесплатно! Внесите свою лепту в развитие PiratBit!
    Комментировать посты могут только пользователи прошедшие не сложную регистрацию
    Показать сообщения:    

    Интерны через торрент
    Скачать бесплатно Интерны
    Интерны скачать торрент
    Интерны смотреть онлайн
    Cкачать фильм Интерны бесплатно
    Интерны скачать торрент в хорошем качестве
    Интерны смотреть онлайн бесплатно в хорошем качестве


    Вы не можете начинать темы
    Вы не можете отвечать на сообщения
    Вы не можете редактировать свои сообщения
    Вы не можете удалять свои сообщения
    Вы не можете голосовать в опросах
    Вы не можете прикреплять файлы к сообщениям
    Вы можете скачивать файлы