Присоединяйтесь к нам в Telegram!, здесь всегда актуальный адрес сайта, оперативная поддержка и многое другое!!

>

5.9

iTunes

7.4

iTunes

9.4

1 сезон

1

7.4

2 сезон

7.2

iTunes

7.3

1 сезон

13

6.1

iTunes

8.3

Пиратка

30

ULTIMATE

pack

9.9

Лицензия

ВАЖНО

ИГРА 18+

pack

7.3

RePack

MK11

7.7

RePack

jed

7.8

RePack

fifa19

8.5

RePack

RDR2

RePack

NEED FOR SPEED™ PAYBACK

5 сезон

9 сезон

Бесстыжие 9 сезон

Все сериалы

все сериалы на PB.wtf

RePack

FAR CRY 5

Anonymous, добрый вечер, мы катастрофически не успеваем собрать деньги на оплату серверов, помогите нам пожалуйста 5,10,15р., для нас важна любая помощь . В качестве благодарности мы отключим Вам всю рекламу на сайте (укажите свой ник в строку Ваше имя)!

×
  
Magnet ссылка

Поздравления с 8 Марта + Мой Лучший Роман / A Novel Romance (Марк Гриффитс) [2015 г., Мелодрама, HDTVRip] VO (Михаил Васильев) piratbit.org

Поздравления с 8 Марта + Мой Лучший Роман через торрент piratbit.org

Размер: 1.46 GB | Добавлен: 6 лет 8 мес. назад | Торрент скачан:83 раза
Смотреть онлайн Поздравления с 8 Марта + Мой Лучший Роман | Скачать    Ребята, помогите собрать деньги на оплату серверов!!!

07-03-2015 21:57 Поздравления с 8 Марта + Мой Лучший Роман Скачать торрент  

Поздравления с 8 Марта
(с Международным женским днем)
Милые девушки, женщины, дамы!
С праздником женским вас, с новой весной!
Снова строчим вам стихи как романы,
Оды слагаем для вас в час ночной.
Только для вас в этот день все признанья,
Все комплименты, букеты цветов.
Пусть исполняются ваши желанья,
В жизни пусть будут весна и любовь!

Мой Лучший Роман / A Novel RomanceГод выпуска: 2015
Страна: США Write Man Films, Larkin-Goldstein Productions
Жанр: Мелодрама
Продолжительность: 01:23:20
Перевод: Любительский одноголосый
Перевод: Михаил Васильев
Озвучивание: Одноголосое (любительское) Lord32x
Рип выполнил: Lord32x
Релиз-группа: Lord32x. Озвучивание фильмов


Режиссер: Марк Гриффитс
Продюссер: Йен Хэй
Сценарий: Ханц Вассербургер

Премьера в мире: 10 января 2015 В ролях: Эми Экер, Дилан Брюс, Тэми Джиллис, Кейси Мандерсон, Чарльз Даттон

Описание: Молодой и успешный писатель приезжает инкогнито в маленький городок, чтобы отдохнуть и преодолеть творческий кризис. Там он знакомится с прекрасной девушкой и у них начинается роман. Проблема в том, что он не может рассказать ей, кто он. Ведь она - известный критик и пишет разгромные рецензии на его произведения.

Качество: HDTVRip
Формат: AVI
Видео кодек: XviD
Аудио кодек: AC3
Видео: Xvid 720x400, 24fps, 2119kbps
Аудио: Dolby AC3, 48000Hz, 6ch, 384kbps
Релиз от: Lord32x

Скриншоты:скриншот  скриншот  скриншот  скриншот  скриншот  скриншот  




General
Complete name : E:\40000\A.Novel.Romance.2015.HDTVRip.1500MB.avi
Format : AVI
Format/Info : Audio Video Interleave
File size : 1.46 GiB
Duration : 1h 23mn
Overall bit rate : 2 513 Kbps
Writing application : VirtualDubMod 1.5.10.3 | (build 2550/release)
Writing library : VirtualDubMod build 2550/release

Video
ID : 0
Format : MPEG-4 Visual
Format profile : Advanced Simple@L5
Format settings, BVOP : 1
Format settings, QPel : No
Format settings, GMC : No warppoints
Format settings, Matrix : Default (H.263)
Codec ID : XVID
Codec ID/Hint : XviD
Duration : 1h 23mn
Bit rate : 2 120 Kbps
Width : 720 pixels
Height : 400 pixels
Display aspect ratio : 16:9
Frame rate : 24.000 fps
Color space : YUV
Chroma subsampling : 4:2:0
Bit depth : 8 bits
Scan type : Progressive
Compression mode : Lossy
Bits/(Pixel*Frame) : 0.307
Stream size : 1.23 GiB (84%)
Writing library : XviD 1.2.1 (UTC 2008-12-04)

Audio
ID : 1
Format : AC-3
Format/Info : Audio Coding 3
Mode extension : CM (complete main)
Format settings, Endianness : Big
Codec ID : 2000
Duration : 1h 23mn
Bit rate mode : Constant
Bit rate : 384 Kbps
Channel(s) : 6 channels
Channel positions : Front: L C R, Side: L R, LFE
Sampling rate : 48.0 KHz
Bit depth : 16 bits
Compression mode : Lossy
Stream size : 229 MiB (15%)
Alignment : Split accross interleaves
Interleave, duration : 42 ms (1.00 video frame)
Interleave, preload duration : 500 ms

piratbit.org



Скачать Поздравления с 8 Марта + Мой Лучший Роман через торрент https://pic1.kartinco.top/images/10/1wzee.jpg Скачать, смотреть онлайн Поздравления с 8 Марта + Мой Лучший Роман бесплантно в хорошем качестве Описание: Молодой и успешный писатель приезжает инкогнито в маленький городок, чтобы отдохнуть и преодолеть творческий кризис. Там он ... 7.8 10 4
Торрент: Зарегистрирован [2015-03-07 21:57] · скачан: 83 раз
Статус: T временная
Размер: 1.46 GB
Как cкачать? Как скачать Поздравления с 8 Марта + Мой Лучший Роман через торрент | UTorrent

28-11-2019 20:33  

Отключить всю рекламу на сайте

    Дорогой пользователь! Огромная просьба, поблагодарите релизера, оцените раздачу и оставьте свои комментарий, если Вы скачали Поздравления с 8 Марта + Мой Лучший Роман через торрент бесплатно!
    Комментировать посты могут только пользователи прошедшие не сложную регистрацию
    Показать сообщения:    

    Поздравления с 8 Марта + Мой Лучший Роман через торрент
    Скачать бесплатно Поздравления с 8 Марта + Мой Лучший Роман
    Поздравления с 8 Марта + Мой Лучший Роман скачать торрент
    Поздравления с 8 Марта + Мой Лучший Роман смотреть онлайн
    Cкачать фильм Поздравления с 8 Марта + Мой Лучший Роман бесплатно
    Поздравления с 8 Марта + Мой Лучший Роман скачать торрент в хорошем качестве
    Поздравления с 8 Марта + Мой Лучший Роман смотреть онлайн бесплатно в хорошем качестве


    Вы не можете начинать темы
    Вы не можете отвечать на сообщения
    Вы не можете редактировать свои сообщения
    Вы не можете удалять свои сообщения
    Вы не можете голосовать в опросах
    Вы не можете прикреплять файлы к сообщениям
    Вы можете скачивать файлы