Присоединяйтесь к нам в Telegram!, здесь всегда актуальный адрес сайта, оперативная поддержка и многое другое!!

>

5.9

iTunes

7.4

iTunes

9.4

1 сезон

1

7.4

2 сезон

7.2

iTunes

7.3

1 сезон

13

6.1

iTunes

8.3

GOG

30

ULTIMATE

pack

9.9

Лицензия

ВАЖНО

ИГРА 18+

pack

7.3

RePack

MK11

7.7

RePack

jed

7.8

RePack

fifa19

8.5

RePack

RDR2

RePack

NEED FOR SPEED™ PAYBACK

5 сезон

9 сезон

Бесстыжие 9 сезон

Все сериалы

все сериалы на PB.wtf

RePack

FAR CRY 5

Anonymous, добрый день, мы катастрофически не успеваем собрать деньги на оплату серверов, помогите нам пожалуйста 5,10,15р., для нас важна любая помощь . В качестве благодарности мы отключим Вам всю рекламу на сайте (укажите свой ник в строку Ваше имя)!

×
  
Magnet ссылка

Токсин / Toxin (Джейсон Дудек / Jason Dudek) [2014, США, ужасы, фантастика, триллер, DVDRip, Любительский (одноголосый)] piratbit.org

Токсин через торрент piratbit.org

Размер: 1.37 GB | Добавлен: 6 лет 8 мес. назад | Торрент скачан:279 раз
Смотреть онлайн Токсин | Скачать    Ребята, помогите собрать деньги на оплату серверов!!!

07-03-2015 23:46 Токсин Скачать торрент  

Токсин / Toxin

Год выпуска: 2014
Страна: США
Жанр: ужасы, фантастика, триллер, драма
Продолжительность: 01:20:41
Перевод: Любительский (одноголосый)
Субтитры: Отсутствует
Режиссер: Джейсон Дудек / Jason Dudek
В ролях:


Тейлор Хэндли (Dean), Дэнни Гловер (Dr. Locke), Винни Джонс (Renner), Марго Харшман (Mandy), Беверли Митчелл (Isabelle), К.С. Ли (Harvest Scientist), Тиффани Хайнс (Rhonda), Райан Пинкстон (Ricky), Либо Фриман (Travis), Фиона Хейл (Sara), Уайли М. Пикетт (Thompson), Мэтт Галлини (Sanchez)

Описание:
Фармацевтическая компания нанимает известного ученого для создания вакцины против смертельного вируса. Следы этой заразы приводят в дом бабушки молодого морского пехотинца, куда он отправился с друзьями, чтобы помочь бабушке с переездом. Вот тут и начинаются приключения у веселой компании.

Рейтинг:

Качество: DVDRip
Формат: AVI
Видео кодек:XviD
Аудио кодек:AC3
Видео: XviD, 720x400 (16:9), 1755 kbps, 23,976 fps, 0,254 bpp
Аудио №1: AC3 / 2.0 / 48 kHz / 192 kbps / 16 bit - Любительское одноголосое [ВОРОН]
Аудио №2: AC3 / 5.1 / 48 kHz / 384 kbps / 16 bit - (оригинал)


General
Complete name : D:\_uTorrent_\Toxin.2015.L1.DVDRip.1400MB.avi
Format : AVI
Format/Info : Audio Video Interleave
File size : 1.37 GiB
Duration : 1h 20mn
Overall bit rate : 2 439 Kbps
Writing application : VirtualDubMod 1.5.10.3 | www.virtualdub-fr.org || (build 2550/release)
Writing library : VirtualDubMod build 2550/release

Video
ID : 0
Format : MPEG-4 Visual
Format profile : Advanced Simple@L5
Format settings, BVOP : 2
Format settings, QPel : No
Format settings, GMC : No warppoints
Format settings, Matrix : Default (H.263)
Codec ID : XVID
Codec ID/Hint : XviD
Duration : 1h 20mn
Bit rate : 1 755 Kbps
Width : 720 pixels
Height : 400 pixels
Display aspect ratio : 16:9
Frame rate : 23.976 fps
Color space : YUV
Chroma subsampling : 4:2:0
Bit depth : 8 bits
Scan type : Progressive
Compression mode : Lossy
Bits/(Pixel*Frame) : 0.254
Stream size : 1 013 MiB (72%)
Writing library : XviD 1.2.1 (UTC 2008-12-04)

Audio #1
ID : 1
Format : AC-3
Format/Info : Audio Coding 3
Mode extension : CM (complete main)
Codec ID : 2000
Duration : 1h 20mn
Bit rate mode : Constant
Bit rate : 192 Kbps
Channel(s) : 2 channels
Channel positions : Front: L R
Sampling rate : 48.0 KHz
Bit depth : 16 bits
Compression mode : Lossy
Stream size : 111 MiB (8%)
Alignment : Split accross interleaves

Audio #2
ID : 2
Format : AC-3
Format/Info : Audio Coding 3
Mode extension : CM (complete main)
Codec ID : 2000
Duration : 1h 20mn
Bit rate mode : Constant
Bit rate : 384 Kbps
Channel(s) : 6 channels
Channel positions : Front: L C R, Side: L R, LFE
Sampling rate : 48.0 KHz
Bit depth : 16 bits
Compression mode : Lossy
Stream size : 222 MiB (16%)
Alignment : Aligned on interleaves

[/code]
piratbit.org



Скачать Токсин через торрент http://i63.fastpic.ru/big/2015/0308/05/584b9b6d216048d0113710bcb3d93505.png Скачать, смотреть онлайн Токсин бесплантно в хорошем качестве Описание: Фармацевтическая компания нанимает известного ученого для создания вакцины против смертельного вируса. Следы этой заразы приводят ... 9.9 10 9
Торрент: Зарегистрирован [2015-03-07 23:46] · скачан: 279 раз
Статус: T временная
Размер: 1.37 GB
Как cкачать? Как скачать Токсин через торрент | UTorrent

% Раздел Тема Автор DL S | L
Фильмы 2014 [DVDrip, WEB-DLRip, HDrip] [ 1.39 GB ] Токсин / Toxin [2014 SATRip многоголосый] кэп Скачать
1 | 0
Фильмы 2014 [DVDrip, WEB-DLRip, HDrip] [ 1.37 GB ] Токсин / Toxin [2014 WEB-DLRip [НТВ Ворон Скачать
1 | 0

28-11-2019 20:33  

Отключить всю рекламу на сайте

    Дорогой пользователь! Огромная просьба, поблагодарите релизера, оцените раздачу и оставьте свои комментарий, если Вы скачали Токсин через торрент бесплатно!
    Комментировать посты могут только пользователи прошедшие не сложную регистрацию
    Показать сообщения:    

    Токсин через торрент
    Скачать бесплатно Токсин
    Токсин скачать торрент
    Токсин смотреть онлайн
    Cкачать фильм Токсин бесплатно
    Токсин скачать торрент в хорошем качестве
    Токсин смотреть онлайн бесплатно в хорошем качестве


    Вы не можете начинать темы
    Вы не можете отвечать на сообщения
    Вы не можете редактировать свои сообщения
    Вы не можете удалять свои сообщения
    Вы не можете голосовать в опросах
    Вы не можете прикреплять файлы к сообщениям
    Вы можете скачивать файлы