Ссылка на приватное зеркало нашего сайта всего за 1$. Внимание количество ограничено!!!

2 сезон

iTunes

iTunes

1

iTunes

iTunes

iTunes

WEBRip

iTunes

30
pack

Вам бонус

ВАЖНО

!!Акция!!

Alien_RageХит недели

RePack

Horizon Zero Dawn

ИГРА 18+

pack

RePack

jed

!!Акция!!

Alien_Rage

RePack

fifa19

RePack

Assassins Creed: Odyssey

RePack

NEED FOR SPEED™ PAYBACK

4 сезон

9 сезон

Бесстыжие 9 сезон

Все сериалы

все сериалы на PB.wtf

RePack

FAR CRY 5
  

Заноза / Splinter (Тоби Уилкинс) [2008 г., ужасы, мистика, HDRip, MVO, лицензия] piratbit.org

Заноза через торрент piratbit.org

Размер: 1.36 GB | Добавлен: 7 лет 7 мес. назад | Торрент скачан:141 раз
Скачать  

14-02-2013 18:32 Заноза Скачать торрент  

Заноза / Splinter

Год выпуска: 2008
Страна: США
Жанр: ужасы, мистика
Продолжительность: 01:22:15
Перевод: Профессиональный многоголосый

Режиссер: Тоби Уилкинс
Продюссер: Кай Бэрри, Тед Кребер, Икбал Ахмед
Сценарий: Йен Шорр, Кай Бэрри, Тоби Уилкинс

Премьера в мире: 31 октября 2008



В ролях: Ши Уигхэм, Паоло Костанзо, Джилл Вагнер, Чарльз Бэйкер, Лорел Уитсетт

Описание: Молодая пара и разыскиваемый преступник оказываются в ловушке на заброшенной бензоколонке. Они должны объединиться, чтобы действовать вместе и попытаться спастись от паразитической твари, стремящейся заражать и убивать все больше и больше людей...

Качество: HDRip
Формат: AVI
Видео кодек: XviD
Аудио кодек: AC3
Видео: 720х304, 23,976 fps, 1464 kbps
Аудио#1: 48,0 KHz, АС-3, 6 ch, 448 kbps
Аудио#2: 48,0 KHz, АС-3, 6 ch, 448 kbps
Общее
Полное имя : D:раздачиZanoza.2008.XviD.HDRip.avi
Формат : AVI
Формат/Информация : Audio Video Interleave
Размер файла : 1,36 Гбайт
Продолжительность : 1 ч. 22 м.
Общий поток : 2374 Кбит/сек
Программа кодирования : VirtualDubMod 1.5.4.1 (build 2178/release)
Библиотека кодирования : VirtualDubMod build 2178/release

Видео
Идентификатор : 0
Формат : MPEG-4 Visual
Профиль формата : Advanced Simple@L5
Параметр BVOP формата : 3
Параметр QPel формата : Нет
Параметр GMC формата : Без точки перехода
Параметр матрицы формата : Выборочная
Идентификатор кодека : XVID
Идентификатор кодека/Подсказка : XviD
Продолжительность : 1 ч. 22 м.
Битрейт : 1464 Кбит/сек
Ширина : 720 пикселей
Высота : 304 пикселя
Соотношение сторон : 2,35:1
Частота кадров : 23,976 кадра/сек
Цветовое пространство : YUV
Субдискретизация насыщенности : 4:2:0
Битовая глубина : 8 бит
Тип развёртки : Прогрессивная
Метод сжатия : С потерями
Бит/(Пиксели*Кадры) : 0.279
Размер потока : 861 Мбайт (62%)
Библиотека кодирования : XviD 1.2.1 (UTC 2008-12-04)

Аудио #1
Идентификатор : 1
Формат : AC-3
Формат/Информация : Audio Coding 3
Расширение режима : CM (complete main)
Параметр Endianness формата : Big
Идентификатор кодека : 2000
Продолжительность : 1 ч. 22 м.
Вид битрейта : Постоянный
Битрейт : 448 Кбит/сек
Каналы : 6 каналов
Расположение каналов : Front: L C R, Side: L R, LFE
Частота : 48,0 КГц
Битовая глубина : 16 бит
Метод сжатия : С потерями
Размер потока : 264 Мбайт (19%)
Выравнивание : Разделение по промежуткам
Продолжительность промежутка : 42 мс. (1,00 видеокадр)
Время предзагрузки промежутка : 500 мс.

Аудио #2
Идентификатор : 2
Формат : AC-3
Формат/Информация : Audio Coding 3
Расширение режима : CM (complete main)
Параметр Endianness формата : Big
Идентификатор кодека : 2000
Продолжительность : 1 ч. 22 м.
Вид битрейта : Постоянный
Битрейт : 448 Кбит/сек
Каналы : 6 каналов
Расположение каналов : Front: L C R, Side: L R, LFE
Частота : 48,0 КГц
Битовая глубина : 16 бит
Метод сжатия : С потерями
Размер потока : 264 Мбайт (19%)
Выравнивание : Разделение по промежуткам
Продолжительность промежутка : 42 мс. (1,00 видеокадр)
Время предзагрузки промежутка : 500 мс.

piratbit.org



Скачать Заноза через торрент http://pic.kartinco.top/images/1/dugllx5mjz.jpg Скачать фильм Заноза через торрент бесплантно в хорошем качестве Описание: Молодая пара и разыскиваемый преступник оказываются в ловушке на заброшенной бензоколонке. Они должны объединиться, чтобы ... 5 10 1
Info! Золотая раздача, скачанное не засчитывается.
Торрент: Зарегистрирован [2013-02-14 18:32] · скачан: 141 раз
Статус: √ проверено
Размер: 1.36 GB
Как cкачать? Как скачать Заноза через торрент | qTorrent

% Раздел Тема Автор DL S | L
Фильмы [HD 720p, 1080p] (Хороший звук DUB, MVO) [ 8.25 GB ] Заноза / Splinter [2008 BDRip 1080p by msltel] MVO DVO msltel Скачать
1 | 0
Фильмы [HD 720p, 1080p] (Хороший звук DUB, MVO) [ 3.19 GB ] Заноза / Splinter [2008 BDRip 720p by msltel] MVO DVO msltel Скачать
1 | 0
Фильмы 2006-2008 [ 2.14 GB ] Заноза / Splinter [2008 BDRip-AVC] MVO|Original|Sub -=BIGBOSS=- Скачать
1 | 0
Фильмы 2006-2008 [ 699 MB ] Заноза  / Splinter [2008 HDTVRip] DEVI Скачать
1 | 0

28-11-2019 20:33  

Отключить всю рекламу на сайте

    Дорогой пользователь! Огромная просьба, поблагодарите релизера, оцените раздачу и оставьте свои комментарий, если Вы скачали Заноза через торрент бесплатно! Внесите свою лепту в развитие PiratBit!
    Комментировать посты могут только пользователи прошедшие не сложную регистрацию
    Показать сообщения:    

    Заноза через торрент
    Скачать бесплатно Заноза
    Заноза скачать торрент
    Заноза смотреть онлайн
    Cкачать фильм Заноза бесплатно
    Заноза скачать торрент в хорошем качестве
    Заноза смотреть онлайн бесплатно в хорошем качестве


    Вы не можете начинать темы
    Вы не можете отвечать на сообщения
    Вы не можете редактировать свои сообщения
    Вы не можете удалять свои сообщения
    Вы не можете голосовать в опросах
    Вы не можете прикреплять файлы к сообщениям
    Вы можете скачивать файлы