Доктор Стрэндж

Лицензия

Добыча

Дубляж

Уэнсдэй

1 сезон

Тор

Дубляж

В эфире

Дубляж

Там, где раки поют

MVO

Властелин колец

1 сезон

Deluxe

pack

Рекомендуем

30

Пиратка

ВАЖНО

ВАЖНО

Ghostwire

Пиратка

jed

RePack

nioh2

RePack

RDR2

RePack

NEED FOR SPEED™ PAYBACK

RePack

скачать торрент

Кинопоиск HD

Острые козырьки 6 сезон

6 сезон

FAR CRY 6

RePack

скачать торрент

Лицензия

скачать торрент

MVO

1

1 сезон

скачать торрент

1 сезон

скачать торрент

Лицензия

  

Поклонница / Der Fan (Экхарт Шмидт) [1982, ужасы, BDRip 720p] VO

Поклонница через торрент piratbit.org

Размер: 3.7 GB | Добавлен: 7 лет 8 мес. назад | Торрент скачан:12 раз
Смотреть онлайн | Скачать   

13-03-2015 11:29 Поклонница Скачать торрент  

Поклонница / Der Fan

Год выпуска: 1982
Страна: ФРГ
Жанр: ужасы
Продолжительность: 01:33:18
Перевод: любительский одноголосый
Субтитры: русские, немецкие

Режиссёр: Экхарт Шмидт

В ролях: Дезире Носбуш, Бодо Стайгер, Simone Brahmann, Йонас Вишер, Helga Tölle, Клаус Мюнстер, Ian Moorse, Вильфрид Бласберг, Sabine Kueckelmann, Клаудия Шуманн

Описание: 17-летняя Симона влюбляется в рок-певца. Пишет ему письма, понятно, без ответа. Из-за этого злится, хамит учителям и родителям, даже нападает на почтальона, полагая, что тот скрывает от неё письма. В конце концов набирается смелости и едет к своему любимому в Мюнхен. Там таких фанаток длиннющая очередь, но наша героиня - девушка очень даже красивая, и рок-звезда благосклонно останавливает на ней взгляд… Но он зло подсмеивается над её искренними чувствами - ведь для него она лишь одна из фанаток, каких у него множество. Месть девушки ужасна и беспощадна…



Качество: BDRip 720p Сравнение с исходником
Формат: MKV
Видео кодек: H.264
Аудио кодек: AC3
Видео: 4984 Kбит/с, 1280х690, 23.976 кадра/с, 0.235 bpp
Аудио 1: русский, AC3, 192 kbps, 2 ch, 48 kHz [любительский одноголосый, Den904]
Аудио 2: немецкий, AC3, 384 kbps, 2 ch, 48 kHz [оригинал]

Имеются неименованные главы/чаптеры.
frame I:697 Avg QP:17.24 size: 89259
frame P:23590 Avg QP:18.29 size: 48179
frame B:109945 Avg QP:20.26 size: 21529

Общее
Уникальный идентификатор : 215957868217131728026013286544074981736 (0xA277F8F694F50CA5B4E21747BE09C168)
Полное имя : D:VideoPoklonnica.1982.BDRip.720p.mkv
Формат : Matroska
Версия формата : Version 4 / Version 2
Размер файла : 3,70 Гбайт
Продолжительность : 1 ч. 33 м.
Общий поток : 5673 Кбит/сек
Дата кодирования : UTC 2015-03-13 04:32:49
Программа кодирования : mkvmerge v7.7.0 ('Six Voices') 64bit built on Feb 28 2015 23:39:33
Библиотека кодирования : libebml v1.3.1 + libmatroska v1.4.2
DURATION : 01:29:37.579000000
NUMBER_OF_FRAMES : 336
NUMBER_OF_BYTES : 15710
_STATISTICS_WRITING_APP : mkvmerge v7.7.0 ('Six Voices') 64bit built on Feb 28 2015 23:39:33
_STATISTICS_WRITING_DATE_UTC : 2015-03-13 04:32:49
_STATISTICS_TAGS : BPS DURATION NUMBER_OF_FRAMES NUMBER_OF_BYTES

Видео
Идентификатор : 1
Формат : AVC
Формат/Информация : Advanced Video Codec
Профиль формата : High@L4.1
Параметр CABAC формата : Да
Параметр ReFrames формата : 9 кадров
Идентификатор кодека : V_MPEG4/ISO/AVC
Продолжительность : 1 ч. 33 м.
Битрейт : 4984 Кбит/сек
Ширина : 1280 пикселей
Высота : 690 пикселей
Соотношение сторон : 1,85:1
Режим частоты кадров : Постоянный
Частота кадров : 23,976 кадра/сек
Цветовое пространство : YUV
Субдискретизация насыщенности : 4:2:0
Битовая глубина : 8 бит
Тип развёртки : Прогрессивная
Бит/(Пиксели*Кадры) : 0.235
Размер потока : 3,25 Гбайт (88%)
Заголовок : BDRip -- STarankov
Библиотека кодирования : x264 core 142 r2431 ac76440
Настройки программы : cabac=1 / ref=9 / deblock=1:-2:-2 / analyse=0x3:0x113 / me=umh / subme=10 / psy=1 / psy_rd=1.00:0.15 / mixed_ref=1 / me_range=32 / chroma_me=1 / trellis=2 / 8x8dct=1 / cqm=0 / deadzone=21,11 / fast_pskip=1 / chroma_qp_offset=-3 / threads=6 / lookahead_threads=1 / sliced_threads=0 / nr=0 / decimate=1 / interlaced=0 / bluray_compat=0 / constrained_intra=0 / bframes=8 / b_pyramid=2 / b_adapt=2 / b_bias=0 / direct=3 / weightb=1 / open_gop=0 / weightp=2 / keyint=230 / keyint_min=23 / scenecut=40 / intra_refresh=0 / rc_lookahead=40 / rc=crf / mbtree=0 / crf=19.7 / qcomp=0.60 / qpmin=0 / qpmax=69 / qpstep=4 / vbv_maxrate=40000 / vbv_bufsize=50000 / crf_max=0.0 / nal_hrd=none / filler=0 / ip_ratio=1.40 / pb_ratio=1.30 / aq=1:1.00
Язык : German
Default : Да
Forced : Нет
DURATION : 01:33:18.593000000
NUMBER_OF_FRAMES : 134232
NUMBER_OF_BYTES : 3565720748
_STATISTICS_WRITING_APP : mkvmerge v7.7.0 ('Six Voices') 64bit built on Feb 28 2015 23:39:33
_STATISTICS_WRITING_DATE_UTC : 2015-03-13 04:32:49
_STATISTICS_TAGS : BPS DURATION NUMBER_OF_FRAMES NUMBER_OF_BYTES

Аудио #1
Идентификатор : 2
Формат : AC-3
Формат/Информация : Audio Coding 3
Расширение режима : CM (complete main)
Параметр Endianness формата : Big
Идентификатор кодека : A_AC3
Продолжительность : 1 ч. 33 м.
Вид битрейта : Постоянный
Битрейт : 192 Кбит/сек
Каналы : 2 канала
Расположение каналов : Front: L R
Частота : 48,0 КГц
Битовая глубина : 16 бит
Метод сжатия : С потерями
Размер потока : 128 Мбайт (3%)
Заголовок : VO (Den904, одноголосый закадровый)
Язык : Russian
Default : Да
Forced : Нет

Аудио #2
Идентификатор : 3
Формат : AC-3
Формат/Информация : Audio Coding 3
Расширение режима : CM (complete main)
Параметр Endianness формата : Big
Идентификатор кодека : A_AC3
Продолжительность : 1 ч. 33 м.
Вид битрейта : Постоянный
Битрейт : 384 Кбит/сек
Каналы : 2 канала
Расположение каналов : Front: L R
Частота : 48,0 КГц
Битовая глубина : 16 бит
Метод сжатия : С потерями
Размер потока : 256 Мбайт (7%)
Заголовок : Original
Язык : German
Default : Нет
Forced : Нет

Текст #1
Идентификатор : 4
Формат : UTF-8
Идентификатор кодека : S_TEXT/UTF8
Идентификатор кодека/Информация : UTF-8 Plain Text
Заголовок : русские
Язык : Russian
Default : Нет
Forced : Нет

Текст #2
Идентификатор : 5
Формат : UTF-8
Идентификатор кодека : S_TEXT/UTF8
Идентификатор кодека/Информация : UTF-8 Plain Text
Заголовок : немецкие
Язык : German
Default : Нет
Forced : Нет

Меню
00:00:00.000 : en:00:00:00.000
00:14:33.748 : en:00:14:33.748
00:23:24.653 : en:00:23:24.653
00:33:18.038 : en:00:33:18.038
00:43:40.535 : en:00:43:40.535
00:54:30.184 : en:00:54:30.184
01:07:19.285 : en:01:07:19.285
01:25:41.595 : en:01:25:41.595



Скачать Поклонница через торрент http://i57.fastpic.ru/big/2015/0313/60/78ba10b3cb99cd3b7f71fe69251a0160.jpg Скачать, смотреть онлайн Поклонница бесплантно в хорошем качестве Описание: 17-летняя Симона влюбляется в рок-певца. Пишет ему письма, понятно, без ответа. Из-за этого злится, хамит учителям и родителям, ... 5 10 1
Торрент: Зарегистрирован [2015-03-13 11:29] · скачан: 12 раз
Статус: √ проверено
Размер: 3.7 GB
Как cкачать? Как скачать Поклонница через торрент | UTorrent

% Раздел Тема Автор DL S | L
Фильмы до 2000 г. [ 2.22 GB ] Поклонница / Der Fan | | BDRip-AVC msltel Скачать
1 | 0

28-11-2019 20:33  


Отключить вcю реклaмy на сайте, в т.ч. и в плеере онлайн просмотра!

    Дорогой пользователь! Огромная просьба, поблагодарите релизера, оцените раздачу и оставьте свои комментарий, если Вы скачали Поклонница через торрент бесплатно!!
    Комментировать посты могут только пользователи прошедшие не сложную регистрацию
    Показать сообщения:    


    Поклонница через торрент
    Скачать бесплатно Поклонница
    Поклонница скачать торрент
    Поклонница смотреть онлайн
    Cкачать фильм Поклонница бесплатно
    Поклонница скачать торрент в хорошем качестве
    Поклонница смотреть онлайн бесплатно в хорошем качестве
    Вы не можете начинать темы
    Вы не можете отвечать на сообщения
    Вы не можете редактировать свои сообщения
    Вы не можете удалять свои сообщения
    Вы не можете голосовать в опросах
    Вы не можете прикреплять файлы к сообщениям
    Вы можете скачивать файлы
    Поклонница / Der Fan [1982, ужасы, BDRip 720p] VO смотреть онлайн, скачать торрент picoco.icu