Присоединяйтесь к нам в Telegram!, здесь всегда актуальный адрес сайта, оперативная поддержка и многое другое!!

>

5.9

iTunes

7.4

iTunes

9.4

1 сезон

1

7.4

2 сезон

7.2

iTunes

7.3

iTunes

13

6.1

iTunes

8.3

Пиратка

30

ULTIMATE

pack

9.9

Лицензия

ВАЖНО

ИГРА 18+

pack

7.3

RePack

MK11

7.7

RePack

jed

7.8

RePack

fifa19

8.5

RePack

RDR2

RePack

NEED FOR SPEED™ PAYBACK

5 сезон

9 сезон

Бесстыжие 9 сезон

Все сериалы

все сериалы на PB.wtf

RePack

FAR CRY 5

Anonymous, добрый вечер, мы катастрофически не успеваем собрать деньги на оплату серверов, помогите нам пожалуйста 5,10,15р., для нас важна любая помощь . В качестве благодарности мы отключим Вам всю рекламу на сайте (укажите свой ник в строку Ваше имя)!

×
  
Magnet ссылка

Уолтер / Walter (Анна Мастро ) [2015, драма, комедия, WEB-DLRip, Любительский (двухголосый) [Пиратская студия дубляжа] piratbit.org

Уолтер через торрент piratbit.org

Размер: 1.37 GB | Добавлен: 6 лет 8 мес. назад | Торрент скачан:210 раз
Смотреть онлайн Уолтер | Скачать    Ребята, помогите собрать деньги на оплату серверов!!!

20-03-2015 20:56 Уолтер Скачать торрент  


Уолтер / Walter


ИНФОРМАЦИЯ:
Год выпуска:2015
Страна: США
Жанр: драма, комедия
Продолжительность: 01:26:06
Перевод: Любительский (двухголосый) [Пиратская студия дубляжа]
Режиссер: Анна Мастро

В Ролях:


Эндрю Дж. Уэст (Walter), Джастин Кирк (Greg), Нив Кэмпбелл (Allie), Брайан Дж. Уайт (Darren), Ливэн Рамбин (Kendall), Майло Вентимилья (Vince), Джим Гэффиган (Corey), Питер Фачинелли (Jim), Вирджиния Мэдсен (Karen), Уильям Х. Мэйси (Dr. Corman), Майкл Патрик МакГилл (Priest), Ли Николас Харрис (Armed police sergeant Harris)

ОПИСАНИЕ:
Уолтер Гари Бенджамин работает билетером в местном кинотеатре. Когда Уолтеру было десять лет, он заключил сделку с Богом, что будет определять путь каждого, с кем вступает в контакт, - попадут они в рай или в ад. В обмен на то, что его отец отправится в рай. Однажды появляется таинственный Грег, который ставит под сомнение смысл жизни Уолтера...

  • Мировая премьера:2 января 2015

    ТЕХ.ДАННЫЕ:
    Качество: WEB-DLRip
    Формат: AVI
    Видео кодек: XviD
    Аудио кодек: AC3
    Видео: XviD, 720x304 (2.35:1), 1883 kbps, 23,976 fps, 0,342 bpp
    Аудио: AC3 / 2.0 / 48 kHz / 384 kbps / 16 bit



    Код:

    General
    Complete name                            : D:\Торенты\Walter.2015.P.WEBRip.1400MB.avi
    Format                                   : AVI
    Format/Info                              : Audio Video Interleave
    File size                                : 1.37 GiB
    Duration                                 : 1h 26mn
    Overall bit rate                         : 2 277 Kbps
    Movie name                               : Walter.2015.P.WEBRip.1400MB_EPIDEMZ.NET
    Director                                 : 3imeMachi9e
    Writing application                      : VirtualDubMod 1.5.10.3 | www.virtualdub-fr.org || (build 2550/release)
    Copyright                                : UNIONGANG&RUSTORRENTS

    Video
    ID                                       : 0
    Format                                   : MPEG-4 Visual
    Format profile                           : Advanced Simple@L5
    Format settings, BVOP                    : 2
    Format settings, QPel                    : No
    Format settings, GMC                     : No warppoints
    Format settings, Matrix                  : Default (MPEG)
    Muxing mode                              : Packed bitstream
    Codec ID                                 : XVID
    Codec ID/Hint                            : XviD
    Duration                                 : 1h 26mn
    Bit rate                                 : 1883  Kbps
    Width                                    : 720 pixels
    Height                                   : 304 pixels
    Display aspect ratio                     : 2.35:1
    Frame rate                               : 23.976 fps
    Color space                              : YUV
    Chroma subsampling                       : 4:2:0
    Bit depth                                : 8 bits
    Scan type                                : Progressive
    Compression mode                         : Lossy
    Bits/(Pixel*Frame)                       : 0.342
    Stream size                              : 1.08 GiB (79%)
    Writing library                          : XviD 73

    Audio
    ID                                       : 1
    Format                                   : AC-3
    Format/Info                              : Audio Coding 3
    Mode extension                           : CM (complete main)
    Codec ID                                 : 2000
    Duration                                 : 1h 26mn
    Bit rate mode                            : Constant
    Bit rate                                 : 384 Kbps
    Channel(s)                               : 2 channels
    Channel positions                        : Front: L R
    Sampling rate                            : 48.0 KHz
    Bit depth                                : 16 bits
    Compression mode                         : Lossy
    Stream size                              : 236 MiB (17%)
    Alignment                                : Split accross interleaves

    Скриншоты:


    © Оформление by Ворон
    piratbit.org



  • Скачать Уолтер через торрент https://pic1.kartinco.top/images/61/ordi9.jpg Скачать, смотреть онлайн Уолтер бесплантно в хорошем качестве Е:Уолтер Гари Бенджамин работает билетером в местном кинотеатре. Когда Уолтеру было десять лет, он заключил сделку с Богом, что будет ... 8.9 10 7
    Торрент: Зарегистрирован [2015-03-20 20:56] · скачан: 210 раз
    Статус: T временная
    Размер: 1.37 GB
    Как cкачать? Как скачать Уолтер через торрент | UTorrent

    % Раздел Тема Автор DL S | L
    Фильмы [HD 720p, 1080p] (Хороший звук DUB, MVO) [ 12.59 GB ] Невероятная жизнь Уолтера Митти / The Secret Life of Walter Mitty [2013 BDRip 1080p] [] + Ukr + Original + Sub от R.G. PiratFilms Messa-fan Скачать
    1 | 0
    Фильмы до 2000 г. [ 1.45 GB ] Дикий Билл / Wild Bill [1995 биография HDRip] [DVO] killermax2013 Скачать
    1 | 0
    Фильмы с авторской озвучкой [ 1.78 GB ] Красная жара / RedHeat [1988 BDRip 1080p Авторский ] 666gtr666 Скачать
    1 | 0
    Фильмы до 2000 г. [ 2.14 GB ] Красная жара / Red Heat [1988 BDRip-AVC] [VO] killermax2013 Скачать
    1 | 0
    Фильмы с авторской озвучкой [ 1.36 GB ] Обсуждению не подлежит / Неоспоримый / Undisputed [2002 BDRip] [AVO] killermax2013 Скачать
    1 | 0
    Сборники (HD Video) [ 53.3 GB ] Неоспоримый: Трилогия / Undisputed: Trilogy [2002 2006 2010 BD-Remux 1080р] MVO DVO AVO NarutoSasuke Скачать
    2 | 0
    T Релизы по Парсеру [Игры, Сериалы и Фильмы и другое...] [ 1.98 GB ] Обсуждению не подлежит / Неоспоримый / Undisputed [2002 Германия BDRip-AVC] DVO + Original + Subs sanekbest1 Скачать
    1 | 0

    28-11-2019 20:33  

    Отключить всю рекламу на сайте

      Дорогой пользователь! Огромная просьба, поблагодарите релизера, оцените раздачу и оставьте свои комментарий, если Вы скачали Уолтер через торрент бесплатно!
      Комментировать посты могут только пользователи прошедшие не сложную регистрацию
      Показать сообщения:    

      Уолтер через торрент
      Скачать бесплатно Уолтер
      Уолтер скачать торрент
      Уолтер смотреть онлайн
      Cкачать фильм Уолтер бесплатно
      Уолтер скачать торрент в хорошем качестве
      Уолтер смотреть онлайн бесплатно в хорошем качестве


      Вы не можете начинать темы
      Вы не можете отвечать на сообщения
      Вы не можете редактировать свои сообщения
      Вы не можете удалять свои сообщения
      Вы не можете голосовать в опросах
      Вы не можете прикреплять файлы к сообщениям
      Вы можете скачивать файлы