Присоединяйтесь к нам в Telegram!, здесь всегда актуальный адрес сайта, оперативная поддержка и многое другое!!

>

5.9

iTunes

7.4

iTunes

9.4

1 сезон

1

7.4

2 сезон

7.2

iTunes

7.3

1 сезон

13

6.1

iTunes

8.3

GOG

30

ULTIMATE

pack

9.9

Лицензия

ВАЖНО

ИГРА 18+

pack

7.3

RePack

MK11

7.7

RePack

jed

7.8

RePack

fifa19

8.5

RePack

RDR2

RePack

NEED FOR SPEED™ PAYBACK

5 сезон

9 сезон

Бесстыжие 9 сезон

Все сериалы

все сериалы на PB.wtf

RePack

FAR CRY 5

Anonymous, доброй ночи, мы катастрофически не успеваем собрать деньги на оплату серверов, помогите нам пожалуйста 5,10,15р., для нас важна любая помощь . В качестве благодарности мы отключим Вам всю рекламу на сайте (укажите свой ник в строку Ваше имя)!

×
  
Magnet ссылка

Мерзость (Грязь) / Muck (Steve Wolsh ) [2015, ужасы, HDRip, Любительский (одноголосый) [den904] piratbit.org

Мерзость через торрент piratbit.org

Размер: 1.47 GB | Добавлен: 6 лет 8 мес. назад | Торрент скачан:429 раз
Смотреть онлайн Мерзость | Скачать    Ребята, помогите собрать деньги на оплату серверов!!!

22-03-2015 20:22 Мерзость Скачать торрент  


Мерзость (Грязь) / Muck
«The lucky ones are already dead...»

ИНФОРМАЦИЯ:
Год выпуска:2015
Страна: США
Жанр: ужасы
Продолжительность: 01:38:33
Перевод: Любительский (одноголосый) [den904]
Режиссер: Steve Wolsh

В Ролях:


Брайс Дрэйпер (Noah), Стефани Даниэльсон (Kylie), Лаура Джейкобс (Desiree), Грант Алан (Billy), Лорен Франческа (Mia), Жаклин Свидберг (Terra), Кэйн Ходдер (Grawesome Crutal), Лачлан Бьюкэнэн (Troit), Джия Скова (Victoria Cougar), Лейла Найт (Kitty), Виктория Софиа (Dedee), Одра Ван Хиис (Miss Cape Cod 2013)

ОПИСАНИЕ:
Группа друзей оказалась в западне, провалившись в древнее захоронение, на выходе из которого их поджидал убийца - воплощение чистого Зла. Героям предстоит выбрать - противостоять злу и сражаться, или вернуться не самой приятной дорогой обратно...

  • Мировая премьера:13 марта 2015

    ТЕХ.ДАННЫЕ:
    Качество: HDRip
    Формат: AVI
    Видео кодек: XviD
    Аудио кодек: AC3
    Видео: XviD, 720x384 (1.875), 1734 kbps, 23,976 fps, 0,249 bpp
    Аудио №1: AC3 / 2.0 / 48 kHz / 192 kbps / Русский
    Аудио №2: AC3 / 2.0 / 48 kHz / 192 kbps / английский



    Код:

    General
    Complete name                            : D:\Торенты\Muck.2015.HDRip.1500mb.avi
    Format                                   : AVI
    Format/Info                              : Audio Video Interleave
    File size                                : 1.47 GiB
    Duration                                 : 1h 38mn
    Overall bit rate                         : 2 133 Kbps
    Writing application                      : VirtualDubModRus 1.5.10.2 (build 2542/release)
    Writing library                          : VirtualDubMod build 2542/release

    Video
    ID                                       : 0
    Format                                   : MPEG-4 Visual
    Format profile                           : Advanced Simple@L5
    Format settings, BVOP                    : 2
    Format settings, QPel                    : No
    Format settings, GMC                     : No warppoints
    Format settings, Matrix                  : Default (H.263)
    Muxing mode                              : Packed bitstream
    Codec ID                                 : XVID
    Codec ID/Hint                            : XviD
    Duration                                 : 1h 38mn
    Bit rate                                 : 1734 Kbps
    Width                                    : 720 pixels
    Height                                   : 384 pixels
    Display aspect ratio                     : 1.875
    Frame rate                               : 23.976 fps
    Color space                              : YUV
    Chroma subsampling                       : 4:2:0
    Bit depth                                : 8 bits
    Scan type                                : Progressive
    Compression mode                         : Lossy
    Bits/(Pixel*Frame)                       : 0.249
    Stream size                              : 1.14 GiB (78%)
    Writing library                          : XviD 64

    Audio #1
    ID                                       : 1
    Format                                   : AC-3
    Format/Info                              : Audio Coding 3
    Mode extension                           : CM (complete main)
    Codec ID                                 : 2000
    Duration                                 : 1h 38mn
    Bit rate mode                            : Constant
    Bit rate                                 : 192 Kbps
    Channel(s)                               : 2 channels
    Channel positions                        : Front: L R
    Sampling rate                            : 48.0 KHz
    Bit depth                                : 16 bits
    Compression mode                         : Lossy
    Stream size                              : 135 MiB (9%)
    Alignment                                : Split accross interleaves

    Audio #2
    ID                                       : 2
    Format                                   : AC-3
    Format/Info                              : Audio Coding 3
    Mode extension                           : CM (complete main)
    Codec ID                                 : 2000
    Duration                                 : 1h 38mn
    Bit rate mode                            : Constant
    Bit rate                                 : 192 Kbps
    Channel(s)                               : 2 channels
    Channel positions                        : Front: L R
    Sampling rate                            : 48.0 KHz
    Bit depth                                : 16 bits
    Compression mode                         : Lossy
    Stream size                              : 135 MiB (9%)
    Alignment                                : Split accross interleaves

    Скриншоты:


    © Оформление by Ворон
    piratbit.org



  • Скачать Мерзость через торрент https://pic1.kartinco.top/images/61/ordi9.jpg Скачать, смотреть онлайн Мерзость бесплантно в хорошем качестве Е:Группа друзей оказалась в западне, провалившись в древнее захоронение, на выходе из которого их поджидал убийца - воплощение чистого Зла. ... 9.9 10 8
    Торрент: Зарегистрирован [2015-03-22 20:22] · скачан: 429 раз
    Статус: T временная
    Размер: 1.47 GB
    Как cкачать? Как скачать Мерзость через торрент | UTorrent

    % Раздел Тема Автор DL S | L
    Фантастика, фентези, мистика, ужасы [ 2 MB ] Симмонс Дэн - Мерзость [2015 fb2] hank1922 Скачать
    1 | 0
    Фантастика [ 101 MB ] Стивен Кинг - Конец всей этой мерзости MP3 sahambar Скачать
    1 | 0
    Разное [ 194 MB ] Симпатичная бедовка суёт в пилотку разную мерзость / Nikita [2011 Masturbation SiteRip] orton Скачать
    1 | 0


    Последний раз редактировалось: Ворон (2015-03-22 21:10), всего редактировалось 1 раз

    28-11-2019 20:33  

    Отключить всю рекламу на сайте

    22-03-2015 20:31 Мерзость Скачать торрент  

    Сразу вижу по скринам - кино хорошее!piratbit.org



    22-03-2015 20:55 Мерзость Скачать торрент  

    Фильм сплошное недоразумение.
    Попадается комедийность, много необъяснимых вещей.
    Пустая трата времениpiratbit.org



    23-03-2015 04:45 Мерзость Скачать торрент  

    el_papa писал(а):

    Сразу вижу по скринам - кино хорошее!

    Особенно по второму!!!piratbit.org



    23-03-2015 05:22 Мерзость Скачать торрент  

    Хорошие такие дыньки.Поди- и сдохла то первой :jest3:piratbit.org



      Дорогой пользователь! Огромная просьба, поблагодарите релизера, оцените раздачу и оставьте свои комментарий, если Вы скачали Мерзость через торрент бесплатно!
      Комментировать посты могут только пользователи прошедшие не сложную регистрацию
      Показать сообщения:    

      Мерзость через торрент
      Скачать бесплатно Мерзость
      Мерзость скачать торрент
      Мерзость смотреть онлайн
      Cкачать фильм Мерзость бесплатно
      Мерзость скачать торрент в хорошем качестве
      Мерзость смотреть онлайн бесплатно в хорошем качестве


      Вы не можете начинать темы
      Вы не можете отвечать на сообщения
      Вы не можете редактировать свои сообщения
      Вы не можете удалять свои сообщения
      Вы не можете голосовать в опросах
      Вы не можете прикреплять файлы к сообщениям
      Вы можете скачивать файлы