Доктор Стрэндж

Лицензия

Добыча

Дубляж

Уэнсдэй

1 сезон

Тор

Дубляж

В эфире

Дубляж

Там, где раки поют

MVO

Властелин колец

1 сезон

Deluxe

pack

Рекомендуем

30

Пиратка

ВАЖНО

ВАЖНО

Ghostwire

Пиратка

jed

RePack

nioh2

RePack

RDR2

RePack

NEED FOR SPEED™ PAYBACK

RePack

скачать торрент

Кинопоиск HD

Острые козырьки 6 сезон

6 сезон

FAR CRY 6

RePack

скачать торрент

Лицензия

скачать торрент

MVO

1

1 сезон

скачать торрент

1 сезон

скачать торрент

Лицензия

  

Не мой день / Nicht mein Tag (Петер Торварт) [2014 г., боевик, комедия, криминал, приключения, BDRip 1080p, Любительский двухголосый]

Не мой день через торрент piratbit.org

Размер: 12.01 GB | Добавлен: 7 лет 8 мес. назад | Торрент скачан:9 раз
Смотреть онлайн | Скачать   

16-10-2014 08:58 Не мой день Скачать торрент  

Не мой день / Nicht mein Tag
Год выпуска: 2014
Страна: Германия
Жанр: боевик, комедия, криминал, приключения
Продолжительность: 110 мин. / 01:50
Перевод: Любительский (двухголосый) [ViruseProject & Jimmy J]
Субтитры: Русские

Режиссер: Петер Торварт
Продюссер: Кристиан Бекер, Маркус Мачура, Тиль Швайгер
Сценарий: Стефан Холц, Петер Торварт, Ральф Хасманн
оператор: Ян Фисе
художник: Уве Штаник, Кристиана Крумвиде
монтаж: Андреас Менн

Премьера в мире: 16 января 2014

В ролях: Мориц Бляйбтрой, Аксель Штайн, Жасмин Герат, Анна Мария Мюэ, Неля Кипер, Бен Рюдингер, Касэм Ходжа, Беким Гури, Тобиас Нид

Описание: Тилль Райнер — банковский клерк, чья жизнь довольно обычна, если не сказать скучна. Брак, работа, жизнь в небольшом городке. Огонь страсти в отношениях с женой Мириам давно утих, поглощенный повседневной рутиной. Разве это именно то, о чем он так мечтал? Герой фильма сокрушается и не знает, как изменить свою жизнь. Как вдруг, она меняется сама. В один прекрасный день Тилль становится заложником. Вооруженный грабитель банка Наппо, далеко не профессионал своего дела, берет его на прицел.

Качество: BDRip 1080p
Формат: MKV
Видео кодек: AVC
Аудио кодек: AC3
Видео: MPEG-4 AVC/H.264, 1920x816, ~ 14.6 Mbps, 25.000 fps
Аудио#1: русский, AC3, 384 kb/s, 6 ch, 48.0 KHz
Аудио#2: немецкий, AC3, 640 kb/s, 6 ch 48.0 KHz
fps: 25 к/сек

(18+) Присутствует ненормативная лексика!!!
скриншот  скриншот  скриншот  скриншот  скриншот  





E:с торрентовNicht.mein.Tag.2014.Blu.Ray.1080p.mkv
General
Unique ID : 198736068826634240834589569686374514767 (0x95832CB2796BFAB2BFABEFA7E279004F)
Complete name : E:с торрентовNicht.mein.Tag.2014.Blu.Ray.1080p.mkv
Format : Matroska
Format version : Version 4 / Version 2
File size : 12.0 GiB
Duration : 1h 50mn
Overall bit rate : 15.6 Mbps
Movie name : Release Group CINEMANIA
Encoded date : UTC 2014-10-15 09:51:04
Writing application : mkvmerge v7.2.0 ('On Every Street') 64bit built on Sep 13 2014 15:52:10
Writing library : libebml v1.3.0 + libmatroska v1.4.1
Video #1
ID : 1
Format : AVC
Format/Info : Advanced Video Codec
Format profile : High@L4.1
Format settings, CABAC : Yes
Format settings, ReFrames : 5 frames
Codec ID : V_MPEG4/ISO/AVC
Duration : 1h 50mn
Bit rate : 14.6 Mbps
Width : 1 920 pixels
Height : 816 pixels
Display aspect ratio : 2.35:1
Frame rate mode : Constant
Frame rate : 25.000 fps
Color space : YUV
Chroma subsampling : 4:2:0
Bit depth : 8 bits
Scan type : Progressive
Bits/(Pixel*Frame) : 0.372
Stream size : 11.0 GiB (91%)
Title : Release Group CINEMANIA
Writing library : x264 core 142 r2431 ac76440
Encoding settings : cabac=1 / ref=5 / deblock=1:-3:0 / analyse=0x3:0x113 / me=hex / subme=7 / psy=1 / psy_rd=1.00:0.00 / mixed_ref=1 / me_range=16 / chroma_me=1 / trellis=1 / 8x8dct=1 / cqm=0 / deadzone=21,11 / fast_pskip=1 / chroma_qp_offset=-2 / threads=6 / lookahead_threads=1 / sliced_threads=0 / nr=0 / decimate=1 / interlaced=0 / bluray_compat=0 / constrained_intra=0 / bframes=5 / b_pyramid=2 / b_adapt=2 / b_bias=0 / direct=1 / weightb=1 / open_gop=0 / weightp=2 / keyint=250 / keyint_min=25 / scenecut=40 / intra_refresh=0 / rc_lookahead=40 / rc=2pass / mbtree=1 / bitrate=14568 / ratetol=1.0 / qcomp=0.60 / qpmin=0 / qpmax=69 / qpstep=4 / cplxblur=20.0 / qblur=0.5 / ip_ratio=1.40 / aq=1:1.00
Language : English
Default : Yes
Forced : No
Audio #2
ID : 2
Format : AC-3
Format/Info : Audio Coding 3
Mode extension : CM (complete main)
Format settings, Endianness : Big
Codec ID : A_AC3
Duration : 1h 50mn
Bit rate mode : Constant
Bit rate : 384 Kbps
Channel(s) : 6 channels
Channel positions : Front: L C R, Side: L R, LFE
Sampling rate : 48.0 KHz
Bit depth : 16 bits
Compression mode : Lossy
Stream size : 303 MiB (2%)
Title : ViruseProject & Jimmy J
Language : Russian
Default : Yes
Forced : Yes
Audio #3
ID : 3
Format : AC-3
Format/Info : Audio Coding 3
Mode extension : CM (complete main)
Format settings, Endianness : Big
Codec ID : A_AC3
Duration : 1h 50mn
Bit rate mode : Constant
Bit rate : 640 Kbps
Channel(s) : 6 channels
Channel positions : Front: L C R, Side: L R, LFE
Sampling rate : 48.0 KHz
Bit depth : 16 bits
Compression mode : Lossy
Stream size : 505 MiB (4%)
Language : German
Default : No
Forced : No
Text #4
ID : 4
Format : UTF-8
Codec ID : S_TEXT/UTF8
Codec ID/Info : UTF-8 Plain Text
Language : Russian
Default : Yes
Forced : Yes




Скачать Не мой день через торрент https://pic1.kartinco.top/images/71/dlxqx.jpg Скачать, смотреть онлайн Не мой день бесплантно в хорошем качестве Описание: Тилль Райнер — банковский клерк, чья жизнь довольно обычна, если не сказать скучна. Брак, работа, жизнь в небольшом городке. ... 10 10 7
Торрент: Зарегистрирован [2015-03-28 07:27] · скачан: 9 раз
Статус: √ проверено
Размер: 12.01 GB
Как cкачать? Как скачать Не мой день через торрент | UTorrent

% Раздел Тема Автор DL S | L
Фильмы 2014 [DVDrip, WEB-DLRip, HDrip] [ 1.47 GB ] Не мой день / Nicht mein Tag | | HDRip, Любительский многоголосый 19Diman Скачать
1 | 0



Последний раз редактировалось: RiZus (2014-10-16 09:24), всего редактировалось 1 раз

28-11-2019 20:33  


Отключить вcю реклaмy на сайте, в т.ч. и в плеере онлайн просмотра!

25-03-2015 15:48 Не мой день Скачать торрент  

Перевод: Любительский (Многоголосый закадровый) ViruseProject & Jimmy J



    Дорогой пользователь! Огромная просьба, поблагодарите релизера, оцените раздачу и оставьте свои комментарий, если Вы скачали Не мой день через торрент бесплатно!!
    Комментировать посты могут только пользователи прошедшие не сложную регистрацию
    Показать сообщения:    


    Не мой день через торрент
    Скачать бесплатно Не мой день
    Не мой день скачать торрент
    Не мой день смотреть онлайн
    Cкачать фильм Не мой день бесплатно
    Не мой день скачать торрент в хорошем качестве
    Не мой день смотреть онлайн бесплатно в хорошем качестве
    Вы не можете начинать темы
    Вы не можете отвечать на сообщения
    Вы не можете редактировать свои сообщения
    Вы не можете удалять свои сообщения
    Вы не можете голосовать в опросах
    Вы не можете прикреплять файлы к сообщениям
    Вы можете скачивать файлы
    Не мой день / Nicht mein Tag [2014 г., боевик, комедия, криминал, приключения, BDRip 1080p, Любительский двухголосый] смотреть онлайн, скачать торрент picoco.icu