Доктор Стрэндж

Лицензия

Добыча

MVO

Дом дракона

1 сезон

Тор

Лицензия

Мэверик

Лицензия

Там, где раки поют

MVO

Властелин колец

1 сезон

Ultimate

pack

Рекомендуем

30

Repack

ВАЖНО

ВАЖНО

Ghostwire

RePack

jed

RePack

nioh2

RePack

RDR2

RePack

NEED FOR SPEED™ PAYBACK

RePack

скачать торрент

Кинопоиск HD

Острые козырьки 6 сезон

6 сезон

FAR CRY 6

RePack

скачать торрент

Лицензия

скачать торрент

MVO

1

1 сезон

скачать торрент

1 сезон

скачать торрент

Лицензия

  

Бессмертный гарнизон (Захар Аграненко , Эдуард Тиссэ ) [1956, драма, военный, DVDRip]

Бессмертный гарнизон через торрент piratbit.org

Размер: 1.37 GB | Добавлен: 7 лет 6 мес. назад | Торрент скачан:53 раза
Смотреть онлайн Бессмертный гарнизон | Скачать   

31-03-2015 05:41 Бессмертный гарнизон Скачать торрент  

Бессмертный гарнизон

Год выпуска: 1956
Страна: СССР
Жанр: драма, военный
Продолжительность: 01:30:04
Перевод: Не требуется
Режиссер: Захар Аграненко , Эдуард Тиссэ
В ролях: Василий Макаров (Батурин), Владимир Емельянов (Кондратьев), Николай Крючков (Кухарков), Анатолий Чемодуров (Руденко), Валентина Серова (Мария Николаевна), Лидия Сухаревская (Александра Петровна), Антонина Богданова (Анна Ивановна Батурина), Людмила Нарышкина, Геннадий Сайфулин, Надежда Фандикова, Феликс Яворский, Владимир Монахов
Описание:
Фильм, действие которого начинается в первые, самые страшные дни Великой Отечественной войны (22 июня - 20 июля 1941 года), рассказывает о неравной борьбе с гитлеровцами защитников Брестской крепости.
Рейтинг:

Качество: DVDRip
Формат: AVI
Видео кодек: DivX
Аудио кодек:AC3
Видео: DivX 5, 704x528 (4:3), 1779 kbps, 25 fps, 0,192 bpp
Аудио: AC3 / 2.0 / 48 kHz / 384 kbps / 16 bit

Код:

General
Complete name                            : D:\Bessmertniy.garnizon.DVDRip.avi
Format                                   : AVI
Format/Info                              : Audio Video Interleave
File size                                : 1.37 GiB
Duration                                 : 1h 30mn
Overall bit rate                         : 2 174 Kbps
Writing application                      : VirtualDubModRus 1.5.10.2 (build 2542/release)
Writing library                          : VirtualDubMod build 2542/release

Video
ID                                       : 0
Format                                   : MPEG-4 Visual
Format settings, BVOP                    : 1
Format settings, QPel                    : No
Format settings, GMC                     : No warppoints
Format settings, Matrix                  : Default (H.263)
Muxing mode                              : Packed bitstream
Codec ID                                 : DX50
Codec ID/Hint                            : DivX 5
Duration                                 : 1h 30mn
Bit rate                                 : 1 780 Kbps
Width                                    : 704 pixels
Height                                   : 528 pixels
Display aspect ratio                     : 4:3
Frame rate                               : 25.000 fps
Color space                              : YUV
Chroma subsampling                       : 4:2:0
Bit depth                                : 8 bits
Scan type                                : Progressive
Compression mode                         : Lossy
Bits/(Pixel*Frame)                       : 0.192
Stream size                              : 1.12 GiB (82%)
Writing library                          : DivX 6.8.3-6.8.4 (UTC 2008-06-07)

Audio
ID                                       : 1
Format                                   : AC-3
Format/Info                              : Audio Coding 3
Mode extension                           : CM (complete main)
Codec ID                                 : 2000
Duration                                 : 1h 30mn
Bit rate mode                            : Constant
Bit rate                                 : 384 Kbps
Channel(s)                               : 2 channels
Channel positions                        : Front: L R
Sampling rate                            : 48.0 KHz
Bit depth                                : 16 bits
Compression mode                         : Lossy
Stream size                              : 247 MiB (18%)
Alignment                                : Aligned on interleaves
Interleave, duration                     : 40 ms (1.00 video frame)
Interleave, preload duration             : 512 ms




Скачать Бессмертный гарнизон через торрент http://i5-imageban-ru.translate.goog/out/2015/03/31/8af4360487c6715f4fd9865494d5cca2.jpg Скачать, смотреть онлайн Бессмертный гарнизон бесплантно в хорошем качестве Описание: Фильм, действие которого начинается в первые, самые страшные дни Великой Отечественной войны (22 июня - 20 июля 1941 года), ... 10 10 4
Info! Золотая раздача, скачанное не засчитывается.
Торрент: Зарегистрирован [2015-03-31 05:41] · скачан: 53 раз
Статус: √ проверено
Размер: 1.37 GB
Как cкачать? Как скачать Бессмертный гарнизон через торрент | UTorrent

% Раздел Тема Автор DL S | L
Кино СССР [ 1.09 GB ] Бессмертный гарнизон | | DVDRip-AVC от AVP Studio AVP Studio Скачать
1 | 0
Кино СССР [ 744 MB ] Бессмертный гарнизон | | DVDRip от AVP Studio AVP Studio Скачать
1 | 0
Кино СССР [ 1.09 GB ] Бессмертный гарнизон | | DVDRip от AVP Studio AVP Studio Скачать
1 | 0

28-11-2019 20:33  

Отключить вcю реклaмy на сайте

    Дорогой пользователь! Огромная просьба, поблагодарите релизера, оцените раздачу и оставьте свои комментарий, если Вы скачали Бессмертный гарнизон через торрент бесплатно!!
    Комментировать посты могут только пользователи прошедшие не сложную регистрацию
    Показать сообщения:    


    Бессмертный гарнизон через торрент
    Скачать бесплатно Бессмертный гарнизон
    Бессмертный гарнизон скачать торрент
    Бессмертный гарнизон смотреть онлайн
    Cкачать фильм Бессмертный гарнизон бесплатно
    Бессмертный гарнизон скачать торрент в хорошем качестве
    Бессмертный гарнизон смотреть онлайн бесплатно в хорошем качестве
    Вы не можете начинать темы
    Вы не можете отвечать на сообщения
    Вы не можете редактировать свои сообщения
    Вы не можете удалять свои сообщения
    Вы не можете голосовать в опросах
    Вы не можете прикреплять файлы к сообщениям
    Вы можете скачивать файлы