Присоединяйтесь к нам в Telegram!, здесь всегда актуальный адрес сайта, оперативная поддержка и многое другое!!

>

5.9

iTunes

7.4

iTunes

9.4

1 сезон

1

7.4

2 сезон

7.2

iTunes

7.3

1 сезон

13

6.1

iTunes

8.3

GOG

30

ULTIMATE

pack

9.9

Лицензия

ВАЖНО

ИГРА 18+

pack

7.3

RePack

MK11

7.7

RePack

jed

7.8

RePack

fifa19

8.5

RePack

RDR2

RePack

NEED FOR SPEED™ PAYBACK

5 сезон

9 сезон

Бесстыжие 9 сезон

Все сериалы

все сериалы на PB.wtf

RePack

FAR CRY 5

Anonymous, добрый день, мы катастрофически не успеваем собрать деньги на оплату серверов, помогите нам пожалуйста 5,10,15р., для нас важна любая помощь . В качестве благодарности мы отключим Вам всю рекламу на сайте (укажите свой ник в строку Ваше имя)!

×
  
Magnet ссылка

Торговля кожей / Skin Traffik (Ара Пайая / Ara Paiaya) [2015, Великобритания, боевик, криминал, HDRip] DVO [ColdFilm] + ENG piratbit.org

Торговля кожей через торрент piratbit.org

Размер: 1.44 GB | Добавлен: 6 лет 7 мес. назад | Торрент скачан:372 раза
Смотреть онлайн Торговля кожей | Скачать    Ребята, помогите собрать деньги на оплату серверов!!!

05-04-2015 02:34 Торговля кожей Скачать торрент  

Торговля кожей / Skin Traffik
«Потому что некоторых людей, просто нужно убить»


  • Год выпуска: 2015
  • Страна: Великобритания
  • Жанр: боевик, криминал
  • Продолжительность: 01:33:23
  • Перевод: Любительский (двухголосый) [ColdFilm]

  • Режиссер: Ара Пайая / Ara Paiaya
  • В ролях:

    Гэри Дэниелс (Bradley), Микки Рурк (Vogel), Эрик Робертс (The Executive), Дэрил Ханна (Zhanna), Майкл Мэдсен (The Boss), Доминик Суэйн (Anna Peel), Алан Форд (Paul Hamilton), Джефф Фэйи (Jacob Andries), Челси Ли (Trafficked Girl), Рон Смуренбург (Sergei), Наталия Рюмина (Trafficked Girl), Энджи Симс (Sally)

  • Описание:
    Измученный киллер пытается восстановить свою человечность в жестоком преступном мире, выживание в котором является скорее инстинктом, нежели мастерством.
  • Рейтинг:



  • Качество: HDRip
  • Формат: :AVI
  • Видео кодек: XviD
  • Аудио кодек: AC3
  • Видео: 720x304 (2.35:1), 1745 kbps, 25 fps, 0,319 bpp
  • Аудио №1: Русский 2.0 / 48 kHz / 192 kbps / 16 bit
  • Аудио №2: Английский 5.1 / 48 kHz / 256 kbps / 16 bit
  • Релиз от: GEKADOL

    Код:

    General
    Complete name                            : I:\Torgovlya.kozhey.2015.L2.HDRip.1.45GB.avi
    Format                                   : AVI
    Format/Info                              : Audio Video Interleave
    File size                                : 1.44 GiB
    Duration                                 : 1h 33mn
    Overall bit rate                         : 2 208 Kbps
    Writing application                      : VirtualDubMod 1.5.10.2 (build 2540/release)
    Writing library                          : VirtualDubMod build 2540/release

    Video
    ID                                       : 0
    Format                                   : MPEG-4 Visual
    Format profile                           : Advanced Simple@L5
    Format settings, BVOP                    : 2
    Format settings, QPel                    : No
    Format settings, GMC                     : No warppoints
    Format settings, Matrix                  : Default (H.263)
    Muxing mode                              : Packed bitstream
    Codec ID                                 : XVID
    Codec ID/Hint                            : XviD
    Duration                                 : 1h 33mn
    Bit rate                                 : 1 746 Kbps
    Width                                    : 720 pixels
    Height                                   : 304 pixels
    Display aspect ratio                     : 2.35:1
    Frame rate                               : 25.000 fps
    Color space                              : YUV
    Chroma subsampling                       : 4:2:0
    Bit depth                                : 8 bits
    Scan type                                : Progressive
    Compression mode                         : Lossy
    Bits/(Pixel*Frame)                       : 0.319
    Stream size                              : 1.14 GiB (79%)
    Writing library                          : XviD 64

    Audio #1
    ID                                       : 1
    Format                                   : AC-3
    Format/Info                              : Audio Coding 3
    Mode extension                           : CM (complete main)
    Codec ID                                 : 2000
    Duration                                 : 1h 33mn
    Bit rate mode                            : Constant
    Bit rate                                 : 192 Kbps
    Channel(s)                               : 2 channels
    Channel positions                        : Front: L R
    Sampling rate                            : 48.0 KHz
    Bit depth                                : 16 bits
    Compression mode                         : Lossy
    Stream size                              : 128 MiB (9%)
    Alignment                                : Split accross interleaves
    Interleave, duration                     : 40 ms (1.00 video frame)
    Interleave, preload duration             : 500 ms

    Audio #2
    ID                                       : 2
    Format                                   : AC-3
    Format/Info                              : Audio Coding 3
    Mode extension                           : CM (complete main)
    Codec ID                                 : 2000
    Duration                                 : 1h 33mn
    Bit rate mode                            : Constant
    Bit rate                                 : 256 Kbps
    Channel(s)                               : 6 channels
    Channel positions                        : Front: L C R, Side: L R, LFE
    Sampling rate                            : 48.0 KHz
    Bit depth                                : 16 bits
    Compression mode                         : Lossy
    Stream size                              : 171 MiB (12%)
    Alignment                                : Split accross interleaves
    Interleave, duration                     : 40 ms (1.00 video frame)
    Interleave, preload duration             : 500 ms


    Скриншоты:



    piratbit.org



  • Скачать Торговля кожей через торрент http://i60.fastpic.ru/big/2015/0405/e1/ce7fde1c5e61ebd8ef4e0cbf026515e1.jpg Скачать, смотреть онлайн Торговля кожей бесплантно в хорошем качестве Описание: Измученный киллер пытается восстановить свою человечность в жестоком преступном мире, выживание в котором является скорее ... 10 10 12
    Торрент: Зарегистрирован [2015-04-05 02:34] · скачан: 372 раз
    Статус: T временная
    Размер: 1.44 GB
    Как cкачать? Как скачать Торговля кожей через торрент | UTorrent

    % Раздел Тема Автор DL S | L
    T Фильмы [HD 720p, 1080p] (Звук Cam, VO, DVO) [ 4.81 GB ] Торговля кожей / Skin Traffik [2015 BDRip 720p] DVO [ColdFilm] + ENG GEKADOL Скачать
    1 | 0

    28-11-2019 20:33  

    Отключить всю рекламу на сайте

    05-04-2015 04:03 Торговля кожей Скачать торрент  

    Премьера (мир) 29 ноября 2015... Сперли опять?piratbit.org



    05-04-2015 06:16 Торговля кожей Скачать торрент  

    какое то сборище старперов неудачников.piratbit.org



    07-04-2015 17:36 Торговля кожей Скачать торрент  

    а Рурк разве не спился...??? )))piratbit.org



      Дорогой пользователь! Огромная просьба, поблагодарите релизера, оцените раздачу и оставьте свои комментарий, если Вы скачали Торговля кожей через торрент бесплатно!
      Комментировать посты могут только пользователи прошедшие не сложную регистрацию
      Показать сообщения:    

      Торговля кожей через торрент
      Скачать бесплатно Торговля кожей
      Торговля кожей скачать торрент
      Торговля кожей смотреть онлайн
      Cкачать фильм Торговля кожей бесплатно
      Торговля кожей скачать торрент в хорошем качестве
      Торговля кожей смотреть онлайн бесплатно в хорошем качестве


      Вы не можете начинать темы
      Вы не можете отвечать на сообщения
      Вы не можете редактировать свои сообщения
      Вы не можете удалять свои сообщения
      Вы не можете голосовать в опросах
      Вы не можете прикреплять файлы к сообщениям
      Вы можете скачивать файлы