Присоединяйтесь к нам в Telegram!, здесь всегда актуальный адрес сайта, оперативная поддержка и многое другое!!

>

5.9

iTunes

7.4

iTunes

9.4

1 сезон

1

7.4

2 сезон

7.2

iTunes

7.3

iTunes

13

6.1

iTunes

8.3

Пиратка

30

ULTIMATE

pack

9.9

Лицензия

ВАЖНО

ИГРА 18+

pack

7.3

RePack

MK11

7.7

RePack

jed

7.8

RePack

fifa19

8.5

RePack

RDR2

RePack

NEED FOR SPEED™ PAYBACK

5 сезон

9 сезон

Бесстыжие 9 сезон

Все сериалы

все сериалы на PB.wtf

RePack

FAR CRY 5

Anonymous, добрый вечер, мы катастрофически не успеваем собрать деньги на оплату серверов, помогите нам пожалуйста 5,10,15р., для нас важна любая помощь . В качестве благодарности мы отключим Вам всю рекламу на сайте (укажите свой ник в строку Ваше имя)!

×
  
Magnet ссылка

Поездка на возу 2 / Hayride 2 (Террон Р. Парсонс) [2015 г., ужасы, боевик, триллер, WEB-DLRip, Любительский двухголосый "den904 & DeadSno"] piratbit.org

Поездка на возу 2 через торрент piratbit.org

Размер: 1.45 GB | Добавлен: 6 лет 8 мес. назад | Торрент скачан:177 раз
Смотреть онлайн Поездка на возу 2 | Скачать    Ребята, помогите собрать деньги на оплату серверов!!!

05-04-2015 19:02 Поездка на возу 2 Скачать торрент  

Поездка на возу 2 / Hayride 2
Год выпуска: 2015
Страна: США / Studio 213 Films, Frame 29 Films, Full Resolution Design
Жанр: ужасы, боевик, триллер
Продолжительность: 01:32:17
Перевод: Любительский двухголосый (den904 & DeadSno)

Режиссер: Террон Р. Парсонс



В ролях: Шерри Икин, Джереми Сэнд, Джереми Айви, Корландос Скотт, Ричард Тайсон, Джон ДеЛонг, Рэйчел Варела, Дэвид ’Шарк’ Фралик, Адам Кардон, Дефесио Стоглин

Описание: Конец одного пути только знаменует собой начало другого, когда детектив Лумис возвращается, чтобы раскрыть правду легенды Питчфорка.

Качество: WEB-DLRip
Формат: AVI
Видео кодек: XviD
Аудио кодек: AC3
Видео: 720x400 (1.80:1), 23.976 fps, XviD build 50 ~1861 kbps avg, 0.27 bit/pixel
Аудио: 48 kHz, AC3 Dolby Digital, 3/2 (L,C,R,l,r) + LFE ch, ~384 kbps
скриншот   скриншот   скриншот   скриншот   скриншот   скриншот  

Общее
Полное имя : F:\кино\Поездка на возу 2.2015.WEB-DLRip.avi
Формат : AVI
Формат/Информация : Audio Video Interleave
Размер файла : 1,45 Гбайт
Продолжительность : 1 ч. 32 м.
Общий поток : 2255 Кбит/сек
Программа кодирования : VirtualDubMod 1.5.10.3 | www.virtualdub-fr.org || (build 2550/release)
Библиотека кодирования : VirtualDubMod build 2550/release

Видео
Идентификатор : 0
Формат : MPEG-4 Visual
Профиль формата : Advanced Simple@L5
Параметр BVOP формата : 2
Параметр QPel формата : Нет
Параметр GMC формата : Без точки перехода
Параметр матрицы формата : Default (H.263)
Идентификатор кодека : XVID
Идентификатор кодека/Подсказка : XviD
Продолжительность : 1 ч. 32 м.
Битрейт : 1862 Кбит/сек
Ширина : 720 пикселей
Высота : 400 пикселей
Соотношение сторон : 16:9
Частота кадров : 23,976 кадра/сек
Цветовое пространство : YUV
Субдискретизация насыщенности : 4:2:0
Битовая глубина : 8 бит
Тип развёртки : Прогрессивная
Метод сжатия : С потерями
Бит/(Пиксели*Кадры) : 0.270
Размер потока : 1,20 Гбайт (83%)
Библиотека кодирования : XviD 1.2.1 (UTC 2008-12-04)

Аудио
Идентификатор : 1
Формат : AC-3
Формат/Информация : Audio Coding 3
Расширение режима : CM (complete main)
Параметр Endianness формата : Big
Идентификатор кодека : 2000
Продолжительность : 1 ч. 32 м.
Вид битрейта : Постоянный
Битрейт : 384 Кбит/сек
Каналы : 6 каналов
Расположение каналов : Front: L C R, Side: L R, LFE
Частота : 48,0 КГц
Битовая глубина : 16 бит
Метод сжатия : С потерями
Размер потока : 253 Мбайт (17%)
Выравнивание : Разделение по промежуткам
Продолжительность промежутка : 42 мс. (1,00 видеокадр)
Время предзагрузки промежутка : 500 мс.

piratbit.org



Скачать Поездка на возу 2 через торрент https://pic1.kartinco.top/images/10/av4bu.jpg Скачать, смотреть онлайн Поездка на возу 2 бесплантно в хорошем качестве Описание: Конец одного пути только знаменует собой начало другого, когда детектив Лумис возвращается, чтобы раскрыть правду легенды ... 10 10 8
Торрент: Зарегистрирован [2015-04-05 19:02] · скачан: 177 раз
Статус: T временная
Размер: 1.45 GB
Как cкачать? Как скачать Поездка на возу 2 через торрент | UTorrent

% Раздел Тема Автор DL S | L
T Фильмы (WEB-DL 720p, 1080p) [ 2.9 GB ] Поездка на возу 2 / Hayride 2 [2015 WEB-DL 720p] Любительское [DeadSno & den904] Ворон Скачать
1 | 0

28-11-2019 20:33  

Отключить всю рекламу на сайте

05-04-2015 19:11 Поездка на возу 2 Скачать торрент  

coc900 писал(а):

Качество: WEB-DLRip
Перевод: Любительский двухголосый (den904 & DeadSno)

T временнаяpiratbit.org



    Дорогой пользователь! Огромная просьба, поблагодарите релизера, оцените раздачу и оставьте свои комментарий, если Вы скачали Поездка на возу 2 через торрент бесплатно!
    Комментировать посты могут только пользователи прошедшие не сложную регистрацию
    Показать сообщения:    

    Поездка на возу 2 через торрент
    Скачать бесплатно Поездка на возу 2
    Поездка на возу 2 скачать торрент
    Поездка на возу 2 смотреть онлайн
    Cкачать фильм Поездка на возу 2 бесплатно
    Поездка на возу 2 скачать торрент в хорошем качестве
    Поездка на возу 2 смотреть онлайн бесплатно в хорошем качестве


    Вы не можете начинать темы
    Вы не можете отвечать на сообщения
    Вы не можете редактировать свои сообщения
    Вы не можете удалять свои сообщения
    Вы не можете голосовать в опросах
    Вы не можете прикреплять файлы к сообщениям
    Вы можете скачивать файлы