Ссылка на приватное зеркало нашего сайта всего за 1$. Внимание количество ограничено!!!

2 сезон

iTunes

iTunes

1

iTunes

iTunes

iTunes

WEBRip

iTunes

30
pack

Вам бонус

ВАЖНО

!!Акция!!

Alien_RageХит недели

RePack

Horizon Zero Dawn

ИГРА 18+

pack

RePack

jed

!!Акция!!

Alien_Rage

RePack

fifa19

RePack

Assassins Creed: Odyssey

RePack

NEED FOR SPEED™ PAYBACK

4 сезон

9 сезон

Бесстыжие 9 сезон

Все сериалы

все сериалы на PB.wtf

RePack

FAR CRY 5
  

Война / War (Филлип Дж. Этвелл) [2007 г., боевик, триллер, криминал, BDRip-AVC, Дублированный, профессиональный многоголосый, профессиональный двухголосый, авторский] piratbit.org

Война через торрент piratbit.org

Размер: 3.73 GB | Добавлен: 5 лет 5 мес. назад | Торрент скачан:302 раза
Скачать  

14-04-2015 09:03 Война Скачать торрент  

Война / War
Год выпуска: 2007
Страна: США
Жанр: боевик, триллер, криминал
Продолжительность: 103 мин. / 01:43
Перевод: Дублированный, профессиональный многоголосый, профессиональный двухголосый, авторский
Субтитры: Русские, английские

Режиссер: Филлип Дж. Этвелл
Продюссер: Кристофер Петцель, Джим Томпсон, Питер Блок
Сценарий: Ли Энтони Смит, Грегори Дж. Брэдли

Бюджет: $25 000 000
Премьера в мире: 24 августа 2007

IMDB 6.20 (63 464)


В ролях: Джет Ли, Джейсон Стэйтем, Джон Лоун, Девон Аоки, Луис Гусман, Сол Рубинек, Рё Исибаси, Санг Кенг, Мэтью Ст. Патрик, Надин Веласкес, Пётр Иващенко, Александр Рахленко, Андрей Градов, Юрий Маляров, Ольга Зверева

Описание: В мире, которым правит страх, только правосудие спасает жизни. На счету агента ФБР Кроуфорда и его напарника немало обезвреженных бандитов. Но справедливость и закон оказались бессильны, когда одержимый убийца объявил им войну. С этого момента жизнь Кроуфорда превращается в бесконечную игру со смертью, захватывающую и жестокую. Игру, где жизнь не стоит ничего, а бывшие друзья становятся заклятыми врагами.

Качество: BDRip-AVC
Формат: MKV
Видео кодек: AVC
Аудио кодек: AC3
Видео: AVC at 3080 Кбит/сек 1024 x 576 (1.778) at 24.000 fps
Аудио#1: AC-3 at 384 Кбит/сек 6 каналов, 48,0 КГц ru
Аудио#2: AC-3 at 384 Кбит/сек 6 каналов, 48,0 КГц ru
Аудио#3: AC-3 at 192 Кбит/сек 2 канала, 48,0 КГц ru
Аудио#4: AC-3 at 384 Кбит/сек 6 каналов, 48,0 КГц ru
Аудио#5: AC-3 at 384 Кбит/сек 6 каналов, 48,0 КГц ru
Аудио#6: AC-3 at 384 Кбит/сек 6 каналов, 48,0 КГц en
Релиз от: 0ptimus
скриншот   скриншот   скриншот   скриншот  
скриншот  





Общее
Уникальный идентификатор : 197694177556583557878039079185302462592 (0x94BA837DD3CDCDAA9A0E72D12028A080)
Полное имя : D:\Закачки\War.-Open.Matte-.2007.x264.BDRip-AVC.0ptimus.mkv
Формат : Matroska
Версия формата : Version 2
Размер файла : 3,73 Гбайт
Продолжительность : 1 ч. 42 м.
Общий поток : 5186 Кбит/сек
Название фильма : Война | War -Open Matte- [2007] -= BDRip (AVC by 0ptimus =-
Дата кодирования : UTC 2015-04-14 05:23:41
Программа кодирования : mkvmerge v6.6.0 ('The Edge Of The In Between') built on Dec 1 2013 17:55:00
Библиотека кодирования : libebml v1.3.0 + libmatroska v1.4.1

Видео
Идентификатор : 1
Формат : AVC
Формат/Информация : Advanced Video Codec
Профиль формата : High@L4.1
Параметр CABAC формата : Да
Параметр ReFrames формата : 9 кадров
Идентификатор кодека : V_MPEG4/ISO/AVC
Продолжительность : 1 ч. 42 м.
Битрейт : 3080 Кбит/сек
Ширина : 1024 пикселя
Высота : 576 пикселей
Соотношение сторон : 16:9
Режим частоты кадров : Постоянный
Частота кадров : 24,000 кадра/сек
Цветовое пространство : YUV
Субдискретизация насыщенности : 4:2:0
Битовая глубина : 8 бит
Тип развёртки : Прогрессивная
Бит/(Пиксели*Кадры) : 0.218
Размер потока : 2,14 Гбайт (57%)
Заголовок : Rip by 0pti,us
Библиотека кодирования : x264 core 133 r2334 a3ac64b
Настройки программы : cabac=1 / ref=9 / deblock=1:-3:-3 / analyse=0x3:0x113 / me=umh / subme=11 / psy=1 / psy_rd=1.00:0.20 / mixed_ref=1 / me_range=32 / chroma_me=1 / trellis=2 / 8x8dct=1 / cqm=0 / deadzone=21,11 / fast_pskip=0 / chroma_qp_offset=-3 / threads=3 / lookahead_threads=1 / sliced_threads=0 / nr=0 / decimate=0 / interlaced=0 / bluray_compat=0 / constrained_intra=0 / bframes=11 / b_pyramid=2 / b_adapt=2 / b_bias=0 / direct=3 / weightb=1 / open_gop=0 / weightp=2 / keyint=240 / keyint_min=24 / scenecut=40 / intra_refresh=0 / rc_lookahead=40 / rc=2pass / mbtree=0 / bitrate=3080 / ratetol=1.0 / qcomp=0.60 / qpmin=0 / qpmax=69 / qpstep=4 / cplxblur=20.0 / qblur=0.5 / vbv_maxrate=50000 / vbv_bufsize=50000 / nal_hrd=none / ip_ratio=1.40 / pb_ratio=1.30 / aq=1:1.00
Язык : English
Default : Да
Forced : Да

Аудио #1
Идентификатор : 2
Формат : AC-3
Формат/Информация : Audio Coding 3
Расширение режима : CM (complete main)
Параметр Endianness формата : Big
Идентификатор кодека : A_AC3
Продолжительность : 1 ч. 42 м.
Вид битрейта : Постоянный
Битрейт : 384 Кбит/сек
Каналы : 6 каналов
Расположение каналов : Front: L C R, Side: L R, LFE
Частота : 48,0 КГц
Битовая глубина : 16 бит
Метод сжатия : С потерями
Размер потока : 283 Мбайт (7%)
Заголовок : Дублированный AC3 5.1 @ 384 kbps
Язык : Russian
Default : Нет
Forced : Нет

Аудио #2
Идентификатор : 3
Формат : AC-3
Формат/Информация : Audio Coding 3
Расширение режима : CM (complete main)
Параметр Endianness формата : Big
Идентификатор кодека : A_AC3
Продолжительность : 1 ч. 42 м.
Вид битрейта : Постоянный
Битрейт : 384 Кбит/сек
Каналы : 6 каналов
Расположение каналов : Front: L C R, Side: L R, LFE
Частота : 48,0 КГц
Битовая глубина : 16 бит
Метод сжатия : С потерями
Размер потока : 283 Мбайт (7%)
Заголовок : Многоголосый [LostFilm] AC3 5.1 @ 384 kbps
Язык : Russian
Default : Нет
Forced : Нет

Аудио #3
Идентификатор : 4
Формат : AC-3
Формат/Информация : Audio Coding 3
Расширение режима : CM (complete main)
Параметр Endianness формата : Big
Идентификатор кодека : A_AC3
Продолжительность : 1 ч. 42 м.
Вид битрейта : Постоянный
Битрейт : 192 Кбит/сек
Каналы : 2 канала
Расположение каналов : Front: L R
Частота : 48,0 КГц
Битовая глубина : 16 бит
Метод сжатия : С потерями
Размер потока : 141 Мбайт (4%)
Заголовок : Двухголосый [Ren-TV] AC3 2.0 @ 192 kbps
Язык : Russian
Default : Нет
Forced : Нет

Аудио #4
Идентификатор : 5
Формат : AC-3
Формат/Информация : Audio Coding 3
Расширение режима : CM (complete main)
Параметр Endianness формата : Big
Идентификатор кодека : A_AC3
Продолжительность : 1 ч. 42 м.
Вид битрейта : Постоянный
Битрейт : 384 Кбит/сек
Каналы : 6 каналов
Расположение каналов : Front: L C R, Side: L R, LFE
Частота : 48,0 КГц
Битовая глубина : 16 бит
Метод сжатия : С потерями
Размер потока : 283 Мбайт (7%)
Заголовок : Авторский [Андрей Гаврилов] AC3 5.1 @ 384 kbps
Язык : Russian
Default : Нет
Forced : Нет

Аудио #5
Идентификатор : 6
Формат : AC-3
Формат/Информация : Audio Coding 3
Расширение режима : CM (complete main)
Параметр Endianness формата : Big
Идентификатор кодека : A_AC3
Продолжительность : 1 ч. 42 м.
Вид битрейта : Постоянный
Битрейт : 384 Кбит/сек
Каналы : 6 каналов
Расположение каналов : Front: L C R, Side: L R, LFE
Частота : 48,0 КГц
Битовая глубина : 16 бит
Метод сжатия : С потерями
Размер потока : 283 Мбайт (7%)
Заголовок : Авторский [Юрий Живов] AC3 5.1 @ 384 kbps
Язык : Russian
Default : Нет
Forced : Нет

Аудио #6
Идентификатор : 7
Формат : AC-3
Формат/Информация : Audio Coding 3
Расширение режима : CM (complete main)
Параметр Endianness формата : Big
Идентификатор кодека : A_AC3
Продолжительность : 1 ч. 42 м.
Вид битрейта : Постоянный
Битрейт : 384 Кбит/сек
Каналы : 6 каналов
Расположение каналов : Front: L C R, Side: L R, LFE
Частота : 48,0 КГц
Битовая глубина : 16 бит
Метод сжатия : С потерями
Размер потока : 283 Мбайт (7%)
Заголовок : AC3 5.1 @ 384 kbps
Язык : English
Default : Нет
Forced : Нет

Текст #1
Идентификатор : 8
Формат : UTF-8
Идентификатор кодека : S_TEXT/UTF8
Идентификатор кодека/Информация : UTF-8 Plain Text
Default : Да
Forced : Нет

Текст #2
Идентификатор : 9
Формат : UTF-8
Идентификатор кодека : S_TEXT/UTF8
Идентификатор кодека/Информация : UTF-8 Plain Text
Язык : English
Default : Нет
Forced : Нет

Меню
00:00:00.000 : en:Just a Look
00:05:13.500 : en:Game Day
00:07:58.700 : en:Taken Off Guard
00:11:56.301 : en:Vip Access
00:16:39.235 : en:Making Promises
00:18:34.569 : en:Rogue's Back
00:24:17.537 : en:Chinatown Visit
00:29:20.670 : en:Special Arrangement
00:34:26.404 : en:Settling the Score
00:39:49.171 : en:Power Trip
00:42:58.605 : en:Warehouse Tip
00:47:42.772 : en:Keeping an Eye
00:50:03.373 : en:Triad Territory
00:54:22.307 : en:Spilling Blood
00:58:06.707 : en:Go Time
01:02:42.107 : en:Road Chase
01:04:57.075 : en:Shiro's Orders
01:08:14.575 : en:Seeing the Doctor
01:11:15.708 : en:Changing Sides
01:15:38.175 : en:Welcoming Committee
01:18:30.208 : en:Golden Reward
01:23:51.708 : en:Paying Debts
01:31:27.842 : en:Face to Face
01:36:49.476 : en:Getaway Ride
01:42:52.177 : en:Credits


Война скачать торрент


piratbit.org



Скачать Война через торрент http://pic.kartinco.top/images/11/wcwwd.jpg Скачать фильм Война через торрент бесплантно в хорошем качестве Описание: В мире, которым правит страх, только правосудие спасает жизни. На счету агента ФБР Кроуфорда и его напарника немало обезвреженных ... 8.5 10 6
Торрент: Зарегистрирован [2015-04-14 09:03] · скачан: 302 раз
Статус: √ проверено
Размер: 3.73 GB
Как cкачать? Как скачать Война через торрент | qTorrent

% Раздел Тема Автор DL S | L
Сборники на DVD и Сиквелы [DVDrip, WEB-DLRip, HDrip, BDRip] [ 4.36 GB ] Звёздные войны 123456 / Star Wars [1977 1980 1983 1999 2002 2005 г HDTVRip-AVC] DUB - Мега-сборка на 1 DVD L_E_X Скачать
1 | 0
Зарубежные сериалы [ 3.71 GB ] Войны байкеров / Bikie Wars: Brothers in Arms / Сезон: 1 / Серии: 1-6 [2012 история образ жизни HDRip] MVO FilmGate + Original wekotila Скачать
1 | 0
Дополнения к играм [ 1.03 GB ] Герои меча и магии 5: Эпоха эпических войн / Heroes of Might & Magic V: Epic War Age [лицензияRUМодификация / Аdd-Оn / Пошаговая стратегия] Ghost161 Скачать
2 | 0
RPG [ 4.1 GB ] Star Wars: Battlefront. Anthology / Звёздные войны: Арена войны. Антология [RePackRU/ENLucasArts Entertainment] IZnoGood Скачать
1 | 0
Фильмы (Blu-ray, BD-Remux, HDDVD) [ 21.99 GB ] Звездные войны: Эпизод 3 - Месть Ситхов / Star Wars: Episode III - Revenge of the Sith [2005 BDRip 1080p] fallen_poet Скачать
1 | 0
RTS (стратегии в реальном времени) [ 4.62 GB ] Warhammer 40k Dawn of War: Рассвет войны - Зов улья 2011 [ПираткаRUStrategy / 3D] =Чувак= Скачать
1 | 0
TBS (пошаговые стратегии) [ 1.66 GB ] Герои Меча и Магии IV + Грядущая буря + Вихри войны [Бука] [L] Shmel Скачать
1 | 0

28-11-2019 20:33  

Отключить всю рекламу на сайте

    Дорогой пользователь! Огромная просьба, поблагодарите релизера, оцените раздачу и оставьте свои комментарий, если Вы скачали Война через торрент бесплатно! Внесите свою лепту в развитие PiratBit!
    Комментировать посты могут только пользователи прошедшие не сложную регистрацию
    Показать сообщения:    

    Война через торрент
    Скачать бесплатно Война
    Война скачать торрент
    Война смотреть онлайн
    Cкачать фильм Война бесплатно
    Война скачать торрент в хорошем качестве
    Война смотреть онлайн бесплатно в хорошем качестве


    Вы не можете начинать темы
    Вы не можете отвечать на сообщения
    Вы не можете редактировать свои сообщения
    Вы не можете удалять свои сообщения
    Вы не можете голосовать в опросах
    Вы не можете прикреплять файлы к сообщениям
    Вы можете скачивать файлы