Ссылка на приватное зеркало нашего сайта всего за 1$. Внимание количество ограничено!!!

2 сезон

iTunes

iTunes

1

iTunes

iTunes

iTunes

WEBRip

iTunes

30
pack

Новость дня

ВАЖНО

!!Акция!!

Alien_RageХит недели

RePack

Horizon Zero Dawn

ИГРА 18+

pack

RePack

jed

!!Акция!!

Alien_Rage

RePack

fifa19

RePack

Assassins Creed: Odyssey

RePack

NEED FOR SPEED™ PAYBACK

4 сезон

9 сезон

Бесстыжие 9 сезон

Все сериалы

все сериалы на PB.wtf

RePack

FAR CRY 5
  

Проклятие 2 / The Grudge 2 (Такаши Шимицу) [2006,ужасы, триллер, BDRip-AVC] DUB piratbit.org

Проклятие 2 через торрент piratbit.org

Размер: 2.75 GB | Добавлен: 5 лет 5 мес. назад | Торрент скачан:130 раз
Скачать  

21-04-2015 12:51 Проклятие 2 Скачать торрент  


Название: Проклятие 2
Оригинальное название: The Grudge 2
Год выпуска: 2006
Страна: США, Япония
Жанр: ужасы, триллер
Продолжительность: 01:47:51
Перевод: дублированный

Режиссёр: Такаши Шимицу

В ролях: Сара Мишель Геллар, Эмбер Тэмблин, Ариэль Кеббел, Дженнифер Билз, Эдисон Чен, Сара Ремер, Тереза Палмер, Такако Фудзи, Мэттью Найт, Мисако Уно

Описание: Таинственное и беспощадное проклятие настигает новую жертву — сестру девушки, всё-таки сумевшей спастись от призрака заброшенного токийского дома. Теперь многие умрут страшной смертью. Вопрос только в том, насколько длинной станет цепочка жертв, и есть ли сила, способная остановить это проклятие...



Качество: BDRip-AVC Сравнение с исходником
Формат: MKV
Видео кодек: H.264
Аудио кодек: AC3
Видео: MPEG-4 AVC, 2686 Кбит/с, 1024x576, 23,976 кадра/с
Аудио 1: русский, AC3, 448 kbps, 6 ch, 48 kHz [дублированный]
Аудио 2: английский, AC3, 448 kbps, 6 ch, 48 kHz [оригинал]
frame I:1091 Avg QP:17.07 size: 84898
frame P:29603 Avg QP:18.38 size: 31633
frame B:124455 Avg QP:20.86 size: 9649

Общее
Уникальный идентификатор : 244873941812974764037800639098095580516 (0xB8390176753AEBE9B3E17B31D03AB564)
Полное имя : D:VideoПроклятие 2.2006.BDRip.AVC.mkv
Формат : Matroska
Версия формата : Version 4 / Version 2
Размер файла : 2,75 Гбайт
Продолжительность : 1 ч. 47 м.
Общий поток : 3655 Кбит/сек
Название фильма : BDRip -- STarankov
Дата кодирования : UTC 2015-04-20 10:17:40
Программа кодирования : mkvmerge v7.8.0 ('River Man') 64bit built on Mar 27 2015 16:31:37
Библиотека кодирования : libebml v1.3.1 + libmatroska v1.4.2
DURATION : 01:47:51.328000000
NUMBER_OF_FRAMES : 202229
NUMBER_OF_BYTES : 362394368
_STATISTICS_WRITING_APP : mkvmerge v7.8.0 ('River Man') 64bit built on Mar 27 2015 16:31:37
_STATISTICS_WRITING_DATE_UTC : 2015-04-20 10:17:40
_STATISTICS_TAGS : BPS DURATION NUMBER_OF_FRAMES NUMBER_OF_BYTES

Видео
Идентификатор : 1
Формат : AVC
Формат/Информация : Advanced Video Codec
Профиль формата : High@L4.1
Параметр CABAC формата : Да
Параметр ReFrames формата : 9 кадров
Идентификатор кодека : V_MPEG4/ISO/AVC
Продолжительность : 1 ч. 47 м.
Битрейт : 2686 Кбит/сек
Ширина : 1024 пикселя
Высота : 576 пикселей
Соотношение сторон : 16:9
Режим частоты кадров : Постоянный
Частота кадров : 23,976 кадра/сек
Цветовое пространство : YUV
Субдискретизация насыщенности : 4:2:0
Битовая глубина : 8 бит
Тип развёртки : Прогрессивная
Бит/(Пиксели*Кадры) : 0.190
Размер потока : 2,02 Гбайт (73%)
Библиотека кодирования : x264 core 146 r2538 121396c
Настройки программы : cabac=1 / ref=9 / deblock=1:-1:-1 / analyse=0x3:0x113 / me=umh / subme=10 / psy=1 / psy_rd=1.00:0.15 / mixed_ref=1 / me_range=32 / chroma_me=1 / trellis=2 / 8x8dct=1 / cqm=0 / deadzone=21,11 / fast_pskip=1 / chroma_qp_offset=-3 / threads=6 / lookahead_threads=1 / sliced_threads=0 / nr=0 / decimate=1 / interlaced=0 / bluray_compat=0 / constrained_intra=0 / bframes=8 / b_pyramid=2 / b_adapt=2 / b_bias=0 / direct=1 / weightb=1 / open_gop=0 / weightp=2 / keyint=230 / keyint_min=23 / scenecut=40 / intra_refresh=0 / rc_lookahead=40 / rc=crf / mbtree=0 / crf=19.7 / qcomp=0.60 / qpmin=0 / qpmax=69 / qpstep=4 / vbv_maxrate=40000 / vbv_bufsize=50000 / crf_max=0.0 / nal_hrd=none / filler=0 / ip_ratio=1.40 / pb_ratio=1.30 / aq=1:1.00
Язык : English
Default : Да
Forced : Нет
DURATION : 01:47:51.007000000
NUMBER_OF_FRAMES : 155149
NUMBER_OF_BYTES : 2229868011
_STATISTICS_WRITING_APP : mkvmerge v7.8.0 ('River Man') 64bit built on Mar 27 2015 16:31:37
_STATISTICS_WRITING_DATE_UTC : 2015-04-20 10:17:40
_STATISTICS_TAGS : BPS DURATION NUMBER_OF_FRAMES NUMBER_OF_BYTES

Аудио #1
Идентификатор : 2
Формат : AC-3
Формат/Информация : Audio Coding 3
Расширение режима : CM (complete main)
Параметр Endianness формата : Big
Идентификатор кодека : A_AC3
Продолжительность : 1 ч. 47 м.
Вид битрейта : Постоянный
Битрейт : 448 Кбит/сек
Каналы : 6 каналов
Расположение каналов : Front: L C R, Side: L R, LFE
Частота : 48,0 КГц
Битовая глубина : 16 бит
Метод сжатия : С потерями
Размер потока : 346 Мбайт (12%)
Заголовок : DUB
Язык : Russian
Default : Да
Forced : Нет

Аудио #2
Идентификатор : 3
Формат : AC-3
Формат/Информация : Audio Coding 3
Расширение режима : CM (complete main)
Параметр Endianness формата : Big
Идентификатор кодека : A_AC3
Продолжительность : 1 ч. 47 м.
Вид битрейта : Постоянный
Битрейт : 448 Кбит/сек
Каналы : 6 каналов
Расположение каналов : Front: L C R, Side: L R, LFE
Частота : 48,0 КГц
Битовая глубина : 16 бит
Метод сжатия : С потерями
Размер потока : 346 Мбайт (12%)
Заголовок : Original
Язык : English
Default : Нет
Forced : Нет
piratbit.org



Скачать Проклятие 2 через торрент http://i58.fastpic.ru/big/2015/0421/6b/3937344a68c7867ee920a7befd30ae6b.png Скачать фильм Проклятие 2 через торрент бесплантно в хорошем качестве Описание: Таинственное и беспощадное проклятие настигает новую жертву — сестру девушки, всё-таки сумевшей спастись от призрака заброшенного ... 10 10 1
Торрент: Зарегистрирован [2015-04-21 12:51] · скачан: 130 раз
Статус: √ проверено
Размер: 2.75 GB
Как cкачать? Как скачать Проклятие 2 через торрент | qTorrent

% Раздел Тема Автор DL S | L
Фильмы [HD 720p, 1080p] (Хороший звук DUB, MVO) [ 13.84 GB ] Проклятие 2 / The Grudge 2 [2006 BDRip 1080p] DUB msltel Скачать
1 | 0
Фильмы [HD 720p, 1080p] (Хороший звук DUB, MVO) [ 4.69 GB ] Проклятие 2 / The Grudge 2 [2006 BDRip 720p] DUB msltel Скачать
2 | 0

28-11-2019 20:33  

Отключить всю рекламу на сайте

    Дорогой пользователь! Огромная просьба, поблагодарите релизера, оцените раздачу и оставьте свои комментарий, если Вы скачали Проклятие 2 через торрент бесплатно! Внесите свою лепту в развитие PiratBit!
    Комментировать посты могут только пользователи прошедшие не сложную регистрацию
    Показать сообщения:    

    Проклятие 2 через торрент
    Скачать бесплатно Проклятие 2
    Проклятие 2 скачать торрент
    Проклятие 2 смотреть онлайн
    Cкачать фильм Проклятие 2 бесплатно
    Проклятие 2 скачать торрент в хорошем качестве
    Проклятие 2 смотреть онлайн бесплатно в хорошем качестве


    Вы не можете начинать темы
    Вы не можете отвечать на сообщения
    Вы не можете редактировать свои сообщения
    Вы не можете удалять свои сообщения
    Вы не можете голосовать в опросах
    Вы не можете прикреплять файлы к сообщениям
    Вы можете скачивать файлы