Присоединяйтесь к нам в Telegram!, здесь всегда актуальный адрес сайта, оперативная поддержка и многое другое!!

>

5.9

iTunes

7.4

iTunes

9.4

1 сезон

1

7.4

2 сезон

7.2

iTunes

7.3

1 сезон

13

6.1

iTunes

8.3

Пиратка

30

ULTIMATE

pack

9.9

Лицензия

ВАЖНО

ИГРА 18+

pack

7.3

RePack

MK11

7.7

RePack

jed

7.8

RePack

fifa19

8.5

RePack

RDR2

RePack

NEED FOR SPEED™ PAYBACK

5 сезон

9 сезон

Бесстыжие 9 сезон

Все сериалы

все сериалы на PB.wtf

RePack

FAR CRY 5

Anonymous, доброй ночи, мы катастрофически не успеваем собрать деньги на оплату серверов, помогите нам пожалуйста 5,10,15р., для нас важна любая помощь . В качестве благодарности мы отключим Вам всю рекламу на сайте (укажите свой ник в строку Ваше имя)!

×
  
Magnet ссылка

Параллели / Parallels (Кристофер Леоне ) [2015, боевик, фантастика, WEB-DLRip, Любительский (двухголосый)ColdFilm] piratbit.org

Параллели через торрент piratbit.org

Размер: 1.37 GB | Добавлен: 6 лет 7 мес. назад | Торрент скачан:1182 раза
Смотреть онлайн Параллели | Скачать    Ребята, помогите собрать деньги на оплату серверов!!!

25-04-2015 22:30 Параллели Скачать торрент  

Параллели / Parallels

Год выпуска: 2015
Страна: США
Жанр: боевик, фантастика

Продолжительность: 01:23:33
Перевод: Любительский (двухголосный)ColdFilm
Режиссер: Кристофер Леоне
В ролях: Марк Гапка (Ronan Carver), Джессика Рот (Beatrix Carver), Эрик Джангманн (Harold), Констанс Ву (Polly), Йорго Константин (Alex Carver), Дави Джей (Chief Stone), Майкл Монкс (Tinker), Йен Касселберри (Mike), Б.Дж. Гроган (Dispatch), Лоррэйн Лебланк (Linda), Ан Нуу Нгуйен (Paramedic Sal), Марко Ст. Джон (Promoter)
Описание:
Ронан и Биатрикс Карверы внезапно получают сообщение от своего отца, который говорит им, что хочет встретиться с ними у входа одного ничем не примечательного здания. Ронан, не общавшийся с отцом с самых похорон матери, естественно удивлен странным поведением отца, но приехав к нему домой встречает там свою сестру, а чуть позже к ним присоединяется их сосед-задрот Гарольд. Втроем, они отправляются к зданию, о котором говорил Карвер-старший, но вместо того чтобы подождать его снаружи - они входят внутрь, а вот выходят уже не на оживленную городскую улицу, а в руины города уничтоженного ядерным взрывом. Причем - много лет тому назад.
Рейтинг:

Качество: WEB-DLRip
Формат: AVI
Видео кодек: XviD
Аудио кодек: AC3
Видео: XviD, 720x304 (2.35:1), 2010 kbps, 23,976 fps, 0,383 bpp
Аудио: AC3 / 2.0 / 48 kHz / 320 kbps / 16 bit

Код:

General
Complete name                            : C:\Users\Admin\Downloads\Parallels.2015.WEB-DLRip.avi
Format                                   : AVI
Format/Info                              : Audio Video Interleave
File size                                : 1.37 GiB
Duration                                 : 1h 23mn
Overall bit rate                         : 2 340 Kbps
Writing application                      : VirtualDubMod 1.5.10.3 | www.virtualdub-fr.org || (build 2550/release)
Writing library                          : VirtualDubMod build 2550/release

Video
ID                                       : 0
Format                                   : MPEG-4 Visual
Format profile                           : Advanced Simple@L5
Format settings, BVOP                    : 2
Format settings, QPel                    : No
Format settings, GMC                     : No warppoints
Format settings, Matrix                  : Default (MPEG)
Codec ID                                 : XVID
Codec ID/Hint                            : XviD
Duration                                 : 1h 23mn
Bit rate                                 : 2 011 Kbps
Width                                    : 720 pixels
Height                                   : 304 pixels
Display aspect ratio                     : 2.35:1
Frame rate                               : 23.976 fps
Color space                              : YUV
Chroma subsampling                       : 4:2:0
Bit depth                                : 8 bits
Scan type                                : Progressive
Compression mode                         : Lossy
Bits/(Pixel*Frame)                       : 0.383
Stream size                              : 1.17 GiB (86%)
Writing library                          : XviD 1.2.1 (UTC 2008-12-04)

Audio
ID                                       : 1
Format                                   : AC-3
Format/Info                              : Audio Coding 3
Mode extension                           : CM (complete main)
Codec ID                                 : 2000
Duration                                 : 1h 23mn
Bit rate mode                            : Constant
Bit rate                                 : 320 Kbps
Channel(s)                               : 2 channels
Channel positions                        : Front: L R
Sampling rate                            : 48.0 KHz
Bit depth                                : 16 bits
Compression mode                         : Lossy
Delay relative to video                  : 6ms
Stream size                              : 191 MiB (14%)
Alignment                                : Split accross interleaves
Interleave, duration                     : 42 ms (1.00 video frame)
Interleave, preload duration             : 500 ms

piratbit.org



Скачать Параллели через торрент http://i57.fastpic.ru/big/2015/0426/b0/9d5dfd4e1ede7dd7ccb6040542da66b0.jpg Скачать, смотреть онлайн Параллели бесплантно в хорошем качестве Описание: Ронан и Биатрикс Карверы внезапно получают сообщение от своего отца, который говорит им, что хочет встретиться с ними у входа ... 9.2 10 17
Торрент: Зарегистрирован [2015-04-25 22:30] · скачан: 1 182 раз
Статус: T временная
Размер: 1.37 GB
Как cкачать? Как скачать Параллели через торрент | UTorrent

28-11-2019 20:33  

Отключить всю рекламу на сайте

26-04-2015 05:31 Параллели Скачать торрент  

73 раза скачали...отзовитесь как фильм?piratbit.org



26-04-2015 05:46 Параллели Скачать торрент  

как фильм?piratbit.org



26-04-2015 06:36 Параллели Скачать торрент  

как фильм?piratbit.org



26-04-2015 10:50 Параллели Скачать торрент  

паходу это сериал подобие Скользящихpiratbit.org



26-04-2015 11:20 Параллели Скачать торрент  

Ага на пилотку смахивает, если только незаконченность фильма это не фишка режиссера.
Вначале думал что смахивает на "кольцо вокруг солнца" Саймака, но потом уходит в сторону, а заканчивается вообще незавершенностью сюжета

по фильму: сильно много перестрелок не будет..навороченных CGI роликов тоже, будет ядерный взрыв - одна штукаpiratbit.org



02-05-2015 19:24 Параллели Скачать торрент  

Фильм супер....Интересный. Но на любителя. Странное окончание. Скорей перерастёт в продолжения .Или сериал. :film: yes :hmmm БУДЕМ ЖДАТЬ.piratbit.org



02-05-2015 19:44 Параллели Скачать торрент  

ФИЛЬМ ДАЁТ ПО ДУМАТЬ О ЖИЗНИ.КАК ОНА КОРОТКА- ДА? -ИНТЕРЕСНО КТО БЫ Я БЫЛ В Параллельных МИРАХ :shoot2: piratbit.org



12-05-2015 05:42 Параллели Скачать торрент  

ДАЁТ тоже пишется раздельно - ДА ЁТ.piratbit.org



16-05-2015 12:04 Параллели Скачать торрент  

Полное УГ )))piratbit.org



05-06-2015 03:28 Параллели Скачать торрент  

v-manin писал(а):

ДАЁТ тоже пишется раздельно - ДА ЁТ.

I'm a teacher of Russian language.I was drunk that error.the teacher will not drink any more.sorry.
piratbit.org



    Дорогой пользователь! Огромная просьба, поблагодарите релизера, оцените раздачу и оставьте свои комментарий, если Вы скачали Параллели через торрент бесплатно!
    Комментировать посты могут только пользователи прошедшие не сложную регистрацию
    Показать сообщения:    

    Параллели через торрент
    Скачать бесплатно Параллели
    Параллели скачать торрент
    Параллели смотреть онлайн
    Cкачать фильм Параллели бесплатно
    Параллели скачать торрент в хорошем качестве
    Параллели смотреть онлайн бесплатно в хорошем качестве


    Вы не можете начинать темы
    Вы не можете отвечать на сообщения
    Вы не можете редактировать свои сообщения
    Вы не можете удалять свои сообщения
    Вы не можете голосовать в опросах
    Вы не можете прикреплять файлы к сообщениям
    Вы можете скачивать файлы