Ссылка на приватное зеркало нашего сайта всего за 1$. Внимание количество ограничено!!!

2 сезон

iTunes

1 сезон

1

iTunes

iTunes

iTunes

1 сезон

RePack

30

ИГРА 18+

pack

ВАЖНО

!!Акция!!

Alien_RageХит недели

RePack

MK11
pack

Забери бонус

RePack

jed

!!Акция!!

Alien_Rage

RePack

fifa19

RePack

Assassins Creed: Odyssey

RePack

NEED FOR SPEED™ PAYBACK

4 сезон

9 сезон

Бесстыжие 9 сезон

Все сериалы

все сериалы на PB.wtf

RePack

FAR CRY 5
  

Охотники за привидениями 2 / Ghostbusters 2 (Айвен Райтман) [1989 г., фантастика, HDTVRip-AVC, Дубляж] piratbit.org

Охотники за привидениями 2 через торрент piratbit.org

Размер: 1.45 GB | Добавлен: 5 лет 5 мес. назад | Торрент скачан:311 раз
Скачать  

30-04-2015 12:08 Охотники за привидениями 2 Скачать торрент  

Охотники за привидениями 2 / Ghostbusters 2
Год выпуска: 1989
Страна: США
Жанр: фантастика
Продолжительность: 108 минут
Перевод: Дубляж
Субтитры: нет

Режиссер: Айвен Райтман
Продюссер: Айвен Райтман, Берни Бриллштейн, Майкл С. Гросс
Сценарий: Дэн Эйкроид, Харольд Рэмис

Бюджет: $37 000 000
Премьера в мире: 16 июня 1989

PG
http://www.imdb.com/title/tt0087332/

http://www.kinopoisk.ru/film/2461/

В ролях: Сигурни Уивер, Билл Мюррей, Дэн Эйкройд, Гарольд Рэмис, Эрни Хадсон, Рик Моранис, Энни Поттс, Питер Макникол, Макс фон Сюдов, Вильгельм фон Хомбург.

Описание: После того, как охотники за привидениями победили Гозера, грозившего уничтожить мир живых, прошло пять лет. С тех пор новых призраков не появлялось и о героях забыли. Игон Спенглер, Рэй Стэнз, Питер Венкман и Уинстон Зедмор занялись каждый своим делом. Но вот однажды в главный музей Нью-Йорка «Метрополитен» привезли портрет древнего карпатского властелина Виго. Его дух возвращается к жизни на полотне и, подчинив себе смотрителя музея Яноша, требует от него найти ребёнка, в котором он мог бы перевоплотиться. Одновременно бывшие охотники за привидениями узнают, что под городом появилась какая-то розовая слизь, которая под действием человеческих эмоций порождает демонов. В результате толпы нечисти атакуют Нью-Йорк и герои снова берутся за своё оружие.

Доп. информация: «Привидения вернулись... и напрасно!»

Качество: HDTVRip-AVC
Формат: MKV
Видео кодек: AVC
Аудио кодек: AC3
Видео: 1770Кбит/сек, 1024*432(2,40:1), 25,000 кадров/сек
Аудио#1: 192Кбит/сек, 2 канала, 48,0 КГц, AC-3,





Общее
Уникальный идентификатор : 212387130160148158761909775735650323181 (0x9FC845FC163AF90584445226AFB90AED)
Полное имя : C:\Users\sony\Downloads\Ghostbusters_2.mkv
Формат : Matroska
Версия формата : Version 2
Размер файла : 1,45 Гбайт
Продолжительность : 1 ч. 43 м.
Общий поток : 2002 Кбит/сек
Кодирование произвёл : [tRuAVC]@lolkin@
Дата кодирования : UTC 2010-11-04 20:26:51
Программа кодирования : mkvmerge v3.1.0 ('Happy up here') built on Jan 19 2010 12:09:24
Библиотека кодирования : libebml v0.7.9 + libmatroska v0.8.1
TITLE : Ghostbusters 2 (1989)
DATE_RELEASED : 19th March 2009
COMMENT : HDTVRip

Видео
Идентификатор : 1
Формат : AVC
Формат/Информация : Advanced Video Codec
Профиль формата : High@L4.1
Параметр CABAC формата : Да
Параметр ReFrames формата : 8 кадров
Идентификатор кодека : V_MPEG4/ISO/AVC
Продолжительность : 1 ч. 43 м.
Битрейт : 1770 Кбит/сек
Ширина : 1024 пикселя
Высота : 432 пикселя
Соотношение сторон : 2,40:1
Режим частоты кадров : Постоянный
Частота кадров : 25,000 кадров/сек
Цветовое пространство : YUV
Субдискретизация насыщенности : 4:2:0
Битовая глубина : 8 бит
Тип развёртки : Прогрессивная
Бит/(Пиксели*Кадры) : 0.160
Размер потока : 1,28 Гбайт (88%)
Заголовок : Ghostbusters 2
Библиотека кодирования : x264 core 66 r1093M 1df50b9
Настройки программы : cabac=1 / ref=8 / deblock=1:-2:-1 / analyse=0x3:0x113 / me=umh / subme=7 / psy_rd=0,8:0,4 / mixed_ref=1 / me_range=24 / chroma_me=1 / trellis=2 / 8x8dct=1 / cqm=0 / deadzone=21,11 / chroma_qp_offset=-4 / threads=3 / nr=0 / decimate=1 / mbaff=0 / bframes=6 / b_pyramid=1 / b_adapt=2 / b_bias=0 / direct=1 / wpredb=1 / keyint=250 / keyint_min=25 / scenecut=40(pre) / rc=crf / crf=21,3 / qcomp=0,60 / qpmin=10 / qpmax=51 / qpstep=4 / ip_ratio=1,40 / pb_ratio=1,30 / aq=1:1,10
Язык : English
Default : Да
Forced : Нет

Аудио
Идентификатор : 2
Формат : AC-3
Формат/Информация : Audio Coding 3
Расширение режима : CM (complete main)
Параметр Endianness формата : Big
Идентификатор кодека : A_AC3
Продолжительность : 1 ч. 43 м.
Вид битрейта : Постоянный
Битрейт : 192 Кбит/сек
Каналы : 2 канала
Расположение каналов : Front: L R
Частота : 48,0 КГц
Битовая глубина : 16 бит
Метод сжатия : С потерями
Размер потока : 143 Мбайт (10%)
Default : Да
Forced : Нет


Охотники за привидениями 2 скачать торрент


piratbit.org



Скачать Охотники за привидениями 2 через торрент http://pic.kartinco.top/images/11/l91ra.jpg Скачать фильм Охотники за привидениями 2 через торрент бесплантно в хорошем качестве Описание: После того, как охотники за привидениями победили Гозера, грозившего уничтожить мир живых, прошло пять лет. С тех пор новых ... 9.8 10 5
Торрент: Зарегистрирован [2015-04-30 12:08] · скачан: 311 раз
Статус: √ проверено
Размер: 1.45 GB
Как cкачать? Как скачать Охотники за привидениями 2 через торрент | qTorrent

% Раздел Тема Автор DL S | L
Ultra HD (UHD: 2K, 4K, 8K) — видео сверхвысокой чёткости [ 26.58 GB ] Охотники за привидениями 2 / Ghostbusters II [1989 UHD BDRip 2160p] MVO sheker187 Скачать
1 | 0
Ultra HD (UHD: 2K, 4K, 8K) — видео сверхвысокой чёткости [ 70.17 GB ] Охотники за привидениями 2 / Ghostbusters II [1989 UHD Blu-ray 2160p] 5xMVO + 3xAVO sheker187 Скачать
1 | 0
Фильмы (WEB-DL 720p, 1080p) [ 3.51 GB ] Охотники за привидениями 2 / Ghostbusters II [1989 WEB-DL 720p] Многоголосый закадровый + Original Messa-fan Скачать
1 | 0


Последний раз редактировалось: olegus16 (2015-05-06 11:43), всего редактировалось 5 раз(а)

28-11-2019 20:33  

Отключить всю рекламу на сайте

30-04-2015 12:22 Охотники за привидениями 2 Скачать торрент  

30-04-2015 12:24 Охотники за привидениями 2 Скачать торрент  

ФёдорOFF писал(а):

http://pb.wtf/topic/130958/

Опять что то не так?)piratbit.org



30-04-2015 12:27 Охотники за привидениями 2 Скачать торрент  

внимательно почитай раздел и увидишь,что и где не так)piratbit.org



06-05-2015 08:50 Охотники за привидениями 2 Скачать торрент  

Цитата:

HDTV

HDTVRip-AVC

Цитата:

Видео: 1770Кбит/сек, (2,40:1), 25,000 кадров/сек, V_MPEG4/ISO/AVC, High@L4.1, Advanced Video Кодек

столько всего понаписали, а разрешение не указано

Цитата:

Тип релиза: пиратка

убрать

постер заменить на обложку фильма. размер по большей стороне не должен превышать 700пикселей.

Об исправлении сообщите в лс со ссылкой на раздачу.piratbit.org



06-05-2015 11:30 Охотники за привидениями 2 Скачать торрент  

сейчас все исправлюpiratbit.org



    Дорогой пользователь! Огромная просьба, поблагодарите релизера, оцените раздачу и оставьте свои комментарий, если Вы скачали Охотники за привидениями 2 через торрент бесплатно! Внесите свою лепту в развитие PiratBit!
    Комментировать посты могут только пользователи прошедшие не сложную регистрацию
    Показать сообщения:    

    Охотники за привидениями 2 через торрент
    Скачать бесплатно Охотники за привидениями 2
    Охотники за привидениями 2 скачать торрент
    Охотники за привидениями 2 смотреть онлайн
    Cкачать фильм Охотники за привидениями 2 бесплатно
    Охотники за привидениями 2 скачать торрент в хорошем качестве
    Охотники за привидениями 2 смотреть онлайн бесплатно в хорошем качестве


    Вы не можете начинать темы
    Вы не можете отвечать на сообщения
    Вы не можете редактировать свои сообщения
    Вы не можете удалять свои сообщения
    Вы не можете голосовать в опросах
    Вы не можете прикреплять файлы к сообщениям
    Вы можете скачивать файлы