Присоединяйтесь к нам в Telegram!, здесь всегда актуальный адрес сайта, оперативная поддержка и многое другое!!

>

5.9

iTunes

7.4

iTunes

9.4

1 сезон

1

7.4

2 сезон

7.2

iTunes

7.3

1 сезон

13

6.1

iTunes

8.3

GOG

30

ULTIMATE

pack

9.9

Лицензия

ВАЖНО

ИГРА 18+

pack

7.3

RePack

MK11

7.7

RePack

jed

7.8

RePack

fifa19

8.5

RePack

RDR2

RePack

NEED FOR SPEED™ PAYBACK

5 сезон

9 сезон

Бесстыжие 9 сезон

Все сериалы

все сериалы на PB.wtf

RePack

FAR CRY 5

Anonymous, добрый день, мы катастрофически не успеваем собрать деньги на оплату серверов, помогите нам пожалуйста 5,10,15р., для нас важна любая помощь . В качестве благодарности мы отключим Вам всю рекламу на сайте (укажите свой ник в строку Ваше имя)!

×
  
Magnet ссылка

Исчезновение / VANish (Брайан Бокбрейдер ) [2014, триллер, боевик, BDRip, DVO] [ColdFilm] piratbit.org

Исчезновение через торрент piratbit.org

Размер: 1.36 GB | Добавлен: 6 лет 6 мес. назад | Торрент скачан:157 раз
Смотреть онлайн Исчезновение | Скачать    Ребята, помогите собрать деньги на оплату серверов!!!

04-05-2015 03:38 Исчезновение Скачать торрент  


Исчезновение / VANish
«The sh*t's about to hit the van»

ИНФОРМАЦИЯ:
Год выпуска:2014
Страна: США
Жанр: триллер, боевик
Продолжительность: 01:19:40
Перевод: Любительский (двухголосый) [ColdFilm]
Режиссер: Брайан Бокбрейдер

В Ролях:


Майра Уолш (Emma), Тони Тодд (Officer Darrow), Дэнни Трехо (Carlos), Брайан Бокбрейдер (Max), Адам Гатри (Shane), Денис Дорадо (Jasmine), Эсперанса Диас (Isabella), Анджела Робитейлл (Lexi), Джо Дэвис (Ed), Майкл Мендоза (Hitman #2), Luis Deveze (Hitman #1), Дэн Брункер (Baseball Bat Neighbor)

Описание:
Похищенная молодая девушка едет в фургоне с полными отморозками. Парни даже и не предполагали что вот так всё обернется, узнав что эта девушка дочь мексиканского наркобарона...

  • Мировая премьера:24 февраля 2015

    ТЕХ.ДАННЫЕ:
    Качество: BDRip
    Формат: AVI
    Видео кодек: XviD
    Аудио кодек: MP3
    Видео: XviD, 720x304 (2.35:1), 2250 kbps, 23,976 fps, 0,410 bpp
    Аудио: MP3 / 2.0 / 48 kHz / 192 kbps /



    Код:

    General
    Complete name                            : D:\Торенты\Vanish.HDRip.ColdFilm.avi
    Format                                   : AVI
    Format/Info                              : Audio Video Interleave
    File size                                : 1.36 GiB
    Duration                                 : 1h 19mn
    Overall bit rate                         : 2 451 Kbps
    Writing application                      : VirtualDubMod 1.5.10.2 (build 2540/release)
    Writing library                          : VirtualDubMod build 2540/release

    Video
    ID                                       : 0
    Format                                   : MPEG-4 Visual
    Format profile                           : Advanced Simple@L5
    Format settings, BVOP                    : 4
    Format settings, QPel                    : No
    Format settings, GMC                     : 3 warppoints
    Format settings, Matrix                  : Default (MPEG)
    Codec ID                                 : XVID
    Codec ID/Hint                            : XviD
    Duration                                 : 1h 19mn
    Bit rate                                 :  2250 Kbps
    Width                                    : 720 pixels
    Height                                   : 304 pixels
    Display aspect ratio                     : 2.35:1
    Frame rate                               : 23.976 fps
    Color space                              : YUV
    Chroma subsampling                       : 4:2:0
    Bit depth                                : 8 bits
    Scan type                                : Progressive
    Compression mode                         : Lossy
    Bits/(Pixel*Frame)                       : 0.410
    Stream size                              : 1.20 GiB (88%)
    Writing library                          : XviD 1.2.1 (UTC 2008-12-04)

    Audio
    ID                                       : 1
    Format                                   : MPEG Audio
    Format version                           : Version 1
    Format profile                           : Layer 3
    Mode                                     : Joint stereo
    Mode extension                           : MS Stereo
    Codec ID                                 : 55
    Codec ID/Hint                            : MP3
    Duration                                 : 1h 19mn
    Bit rate mode                            : Constant
    Bit rate                                 : 192 Kbps
    Channel(s)                               : 2 channels
    Sampling rate                            : 48.0 KHz
    Compression mode                         : Lossy
    Stream size                              : 109 MiB (8%)
    Alignment                                : Aligned on interleaves
    Writing library                          : LAME3.99.5

    Скриншоты:


    © Оформление by Ворон
    piratbit.org



  • Скачать Исчезновение через торрент https://pic1.kartinco.top/images/61/ordi9.jpg Скачать, смотреть онлайн Исчезновение бесплантно в хорошем качестве Описание: Похищенная молодая девушка едет в фургоне с полными отморозками. Парни даже и не предполагали что вот так всё обернется, узнав ... 9.9 10 11
    Торрент: Зарегистрирован [2015-05-04 03:38] · скачан: 157 раз
    Статус: T временная
    Размер: 1.36 GB
    Как cкачать? Как скачать Исчезновение через торрент | UTorrent

    % Раздел Тема Автор DL S | L
    Фильмы 2018 [DVDrip, WEB-DLRip, HDrip] (DUB, MVO) [ 1.41 GB ] Исчезновение / The Vanishing [2018 BDRip] - Twi7ter Скачать
    1 | 0
    Фильмы 2018 [DVDrip, WEB-DLRip, HDrip] (DUB, MVO) [ 1.41 GB ] Исчезновение / The Vanishing / Keepers [2018 BDRip] [US Transfer] bober100 Скачать
    1 | 0
    Фильмы [HD 720p, 1080p] (Хороший звук DUB, MVO) [ 6.42 GB ] Исчезновение / The Vanishing / Keepers [2018 BDRip 720p] bober100 Скачать
    1 | 0
    Фильмы [HD 720p, 1080p] (Хороший звук DUB, MVO) [ 10.07 GB ] Исчезновение / The Vanishing / Keepers [2018 BDRip 1080p] bober100 Скачать
    2 | 0
    Фильмы (Blu-ray, BD-Remux, HDDVD) [ 28.66 GB ] Исчезновение / The Vanishing / Keepers [2018 BD Remux 1080p] bober100 Скачать
    1 | 0
    Фильмы (Blu-ray, BD-Remux, HDDVD) [ 17.14 GB ] Исчезновение / The Vanishing [2018 BDRemux 1080p] MVO [СВ-Студия] sheker187 Скачать
    1 | 0
    Фильмы 2018 [DVDrip, WEB-DLRip, HDrip] (DUB, MVO) [ 1.99 GB ] Исчезновение / The Vanishing / Keepers [2018 BDRip-AVC] MVO [СВ-Студия] bober100 Скачать
    1 | 0

    28-11-2019 20:33  

    Отключить всю рекламу на сайте

      Дорогой пользователь! Огромная просьба, поблагодарите релизера, оцените раздачу и оставьте свои комментарий, если Вы скачали Исчезновение через торрент бесплатно!
      Комментировать посты могут только пользователи прошедшие не сложную регистрацию
      Показать сообщения:    

      Исчезновение через торрент
      Скачать бесплатно Исчезновение
      Исчезновение скачать торрент
      Исчезновение смотреть онлайн
      Cкачать фильм Исчезновение бесплатно
      Исчезновение скачать торрент в хорошем качестве
      Исчезновение смотреть онлайн бесплатно в хорошем качестве


      Вы не можете начинать темы
      Вы не можете отвечать на сообщения
      Вы не можете редактировать свои сообщения
      Вы не можете удалять свои сообщения
      Вы не можете голосовать в опросах
      Вы не можете прикреплять файлы к сообщениям
      Вы можете скачивать файлы