2 сезон

iTunes

MVO

1

2 сезон

iTunes

iTunes

1 сезон

RePack

30

Ultimate

ВАЖНО

ИГРА 18+

pack

RePack

MK11
pack

Легкие деньги

RePack

jed

RePack

fifa19

RePack

RDR2

RePack

NEED FOR SPEED™ PAYBACK

4 сезон

9 сезон

Бесстыжие 9 сезон

Все сериалы

все сериалы на PB.wtf

RePack

FAR CRY 5

Anonymous, добрый день, мы не успеваем собрать деньги на оплату серверов за декабрь и январь, помогите нам пожалуйста в это трудное время. В качестве благодарности мы отключим Вам всю рекламу на сайте (укажите свой ник в строку Ваше имя)!

×
  
Magnet ссылка

Искупление (Александр Прошкин) [2012, драма, военный, история, BDRip 1080p] piratbit.org

Искупление через торрент piratbit.org

Размер: 10.07 GB | Добавлен: 5 лет 8 мес. назад | Торрент скачан:79 раз
Скачать  

05-05-2015 09:54 Искупление Скачать торрент  


Оригинальное название: Искупление
Год выпуска: 2012
Страна: Россия
Жанр: драма, военный, история
Продолжительность: 02:05:22
Язык: русский

Режиссёр: Александр Прошкин

В ролях: Виктория Романенко, Риналь Мухаметов, Андрей Панин, Татьяна Яковенко, Виктор Сухоруков, Сергей Дрейден, Екатерина Волкова, Наталья Морозова, Алишер Умаров, Николай Бутенин

Описание: Действие фильма разворачивается в канун первого послевоенного нового 1946-го года в разорённом южном городе, где ещё совсем недавно жили в мире и согласии представители различных национальностей. Молох войны разделил их на жертв и палачей, породил бесконечное сострадание и нечеловеческую низость. Впрочем, и послевоенная жизнь в разрухе, голоде и нищете обернулась тяжким испытанием. Посудомойка, вдова героя-летчика, ворует из милицейской столовой, чтоб прокормить шестнадцатилетнюю дочь и двух доходяг, которых по доброте душевной приютила в своём убогом жилище. Возмущённая дочь доносит на мать, и та отправляется искупать грех в тюрьму. Тема искупления в фильме сложна и непрямолинейна. Молодой лейтенант лётчик, еврей по национальности, возвращается после госпиталя в родной город и узнаёт, что вся его семья погибла в годы оккупации от рук негодяя соседа. Слепая жажда обращена в пустоту — негодяй понёс наказание и сгнивает заживо в тюрьме. Испепеляющее лейтенанта чувство толкает его на самоубийство. И только новое, пробуждающееся в нём чувство к влюблённой в него юной девушке спасает его от рокового шага. По мотивам повести Фридриха Горенштейна.



Качество: BDRip 1080p Сравнение с исходником
Формат: MKV
Видео кодек: H.264
Аудио кодек: DTS
Видео: MPEG-4 AVC, 8254 Кбит/с, 1920x812, 24 кадра/с
Аудио 1: русский, DTS, 1509 kbps, 6 ch, 48 kHz [оригинал]
Аудио 2: немецкий, DTS, 1509 kbps, 6 ch, 48 kHz [дублированный]
Ника, 2013 год
Победитель (1):
Лучшая мужская роль второго плана (Андрей Панин)

Номинации (2):
Лучшая работа оператора
Лучшая музыка

Кинотавр, 2012 год
Номинации (1):
Главный приз
frame I:948 Avg QP:15.75 size:157663
frame P:39737 Avg QP:17.06 size: 89389
frame B:139845 Avg QP:19.24 size: 30547

Общее
Уникальный идентификатор : 248021162207021339811945740967627675189 (0xBA9723688585BFCCAEBF78DB9DA75635)
Полное имя : D:VideoИскупление.2012.BDRip.1080p.mkv
Формат : Matroska
Версия формата : Version 4 / Version 2
Размер файла : 10,1 Гбайт
Продолжительность : 2 ч. 5 м.
Общий поток : 11,5 Мбит/сек
Название фильма : BDRip -- STarankov
Дата кодирования : UTC 2015-05-05 07:49:32
Программа кодирования : mkvmerge v7.8.0 ('River Man') 64bit built on Mar 27 2015 16:31:37
Библиотека кодирования : libebml v1.3.1 + libmatroska v1.4.2
DURATION : 02:05:21.835000000
NUMBER_OF_FRAMES : 705172
NUMBER_OF_BYTES : 1418806132
_STATISTICS_WRITING_APP : mkvmerge v7.8.0 ('River Man') 64bit built on Mar 27 2015 16:31:37
_STATISTICS_WRITING_DATE_UTC : 2015-05-05 07:49:32
_STATISTICS_TAGS : BPS DURATION NUMBER_OF_FRAMES NUMBER_OF_BYTES

Видео
Идентификатор : 1
Формат : AVC
Формат/Информация : Advanced Video Codec
Профиль формата : High@L4.1
Параметр CABAC формата : Да
Параметр ReFrames формата : 4 кадра
Идентификатор кодека : V_MPEG4/ISO/AVC
Продолжительность : 2 ч. 5 м.
Битрейт : 8254 Кбит/сек
Ширина : 1920 пикселей
Высота : 812 пикселей
Соотношение сторон : 2,35:1
Режим частоты кадров : Постоянный
Частота кадров : 24,000 кадра/сек
Цветовое пространство : YUV
Субдискретизация насыщенности : 4:2:0
Битовая глубина : 8 бит
Тип развёртки : Прогрессивная
Бит/(Пиксели*Кадры) : 0.221
Размер потока : 7,23 Гбайт (72%)
Библиотека кодирования : x264 core 146 r2538 121396c
Настройки программы : cabac=1 / ref=4 / deblock=1:-1:-1 / analyse=0x3:0x113 / me=umh / subme=10 / psy=1 / psy_rd=1.00:0.15 / mixed_ref=1 / me_range=32 / chroma_me=1 / trellis=2 / 8x8dct=1 / cqm=0 / deadzone=21,11 / fast_pskip=1 / chroma_qp_offset=-3 / threads=6 / lookahead_threads=1 / sliced_threads=0 / nr=0 / decimate=1 / interlaced=0 / bluray_compat=0 / constrained_intra=0 / bframes=12 / b_pyramid=2 / b_adapt=2 / b_bias=0 / direct=1 / weightb=1 / open_gop=0 / weightp=2 / keyint=230 / keyint_min=23 / scenecut=40 / intra_refresh=0 / rc_lookahead=40 / rc=crf / mbtree=0 / crf=17.9 / qcomp=0.60 / qpmin=0 / qpmax=69 / qpstep=4 / vbv_maxrate=40000 / vbv_bufsize=50000 / crf_max=0.0 / nal_hrd=none / filler=0 / ip_ratio=1.40 / pb_ratio=1.30 / aq=1:1.00
Язык : Russian
Default : Да
Forced : Нет
DURATION : 02:05:22.084000000
NUMBER_OF_FRAMES : 180530
NUMBER_OF_BYTES : 7973317873
_STATISTICS_WRITING_APP : mkvmerge v7.8.0 ('River Man') 64bit built on Mar 27 2015 16:31:37
_STATISTICS_WRITING_DATE_UTC : 2015-05-05 07:49:32
_STATISTICS_TAGS : BPS DURATION NUMBER_OF_FRAMES NUMBER_OF_BYTES

Аудио #1
Идентификатор : 2
Формат : DTS
Формат/Информация : Digital Theater Systems
Режим : 16
Параметр Endianness формата : Big
Идентификатор кодека : A_DTS
Продолжительность : 2 ч. 5 м.
Вид битрейта : Постоянный
Битрейт : 1509 Кбит/сек
Каналы : 6 каналов
Расположение каналов : Front: L C R, Side: L R, LFE
Частота : 48,0 КГц
Битовая глубина : 16 бит
Метод сжатия : С потерями
Размер потока : 1,32 Гбайт (13%)
Заголовок : Оригинал
Язык : Russian
Default : Да
Forced : Нет

Аудио #2
Идентификатор : 3
Формат : DTS
Формат/Информация : Digital Theater Systems
Режим : 16
Параметр Endianness формата : Big
Идентификатор кодека : A_DTS
Продолжительность : 2 ч. 5 м.
Вид битрейта : Постоянный
Битрейт : 1509 Кбит/сек
Каналы : 6 каналов
Расположение каналов : Front: L C R, Side: L R, LFE
Частота : 48,0 КГц
Битовая глубина : 16 бит
Метод сжатия : С потерями
Размер потока : 1,32 Гбайт (13%)
Заголовок : DUB
Язык : German
Default : Нет
Forced : Нет
piratbit.org



Скачать Искупление через торрент http://i59.fastpic.ru/big/2015/0503/8d/eda8ad1cc09aec4fa3fa1d9c237a1d8d.jpg Скачать фильм Искупление через торрент бесплантно в хорошем качестве Описание: Действие фильма разворачивается в канун первого послевоенного нового 1946-го года в разорённом южном городе, где ещё совсем ... 9.7 10 3
Торрент: Зарегистрирован [2015-05-05 09:54] · скачан: 79 раз
Статус: √ проверено
Размер: 10.07 GB
Как cкачать? Как скачать Искупление через торрент | UTorrent

% Раздел Тема Автор DL S | L
Порно фильмы без сюжета [ 4.91 GB ] XXX ДП Искупление / XXX DP Redemption [2020 All Sex Anal DP Threesomes WEB-DL] bashai5 Скачать
4 | 0
Фильмы 2018 [DVDrip, WEB-DLRip, HDrip] (DUB, MVO) [ 1.46 GB ] Несломленный: Путь к искуплению / Unbroken: Path to Redemption [2018 биография BDRip] DUB [Пифагор / Netflix] bober100 Скачать
1 | 0
Фильмы [HD 720p, 1080p] (Хороший звук DUB, MVO) [ 10.69 GB ] Несломленный: Путь к искуплению / Unbroken: Path to Redemption [2018 биография BDRip 1080p] DUB [Пифагор / Netflix] bober100 Скачать
1 | 0
Фильмы [HD 720p, 1080p] (Хороший звук DUB, MVO) [ 5.88 GB ] Несломленный: Путь к искуплению / Unbroken: Path to Redemption [2018 биография BDRip 720p] DUB [Пифагор / Netflix] bober100 Скачать
1 | 0
Фильмы 2018 [DVDrip, WEB-DLRip, HDrip] (DUB, MVO) [ 2.9 GB ] Несломленный: Путь к искуплению / Unbroken: Path to Redemption [2018 биография BDRip-AVC] DUB [Пифагор / Netflix] +MVO [HDRezka Studio] bober100 Скачать
1 | 0
T Фильмы (мультфильмы) cо спонсором показа (Новинки AVI/MKV) [ 1.37 GB ] Комбинация 2: Искупление / The Combination: Redemption [2019 DVDRip] MVO ["Синема УС"] bober100 Скачать
1 | 0
T Фильмы 2019-2020 [DVDrip, WEB-DLRip, HDrip] (DUB, MVO) [ 1.44 GB ] Искупление / Atone [2019 WEB-DLRip] MVO [HDRezka Studio] - ExKinoRay Enigma2010 Скачать
7 | 0

28-11-2019 20:33  

Отключить всю рекламу на сайте

    Дорогой пользователь! Огромная просьба, поблагодарите релизера, оцените раздачу и оставьте свои комментарий, если Вы скачали Искупление через торрент бесплатно! Внесите свою лепту в развитие PiratBit!
    Комментировать посты могут только пользователи прошедшие не сложную регистрацию
    Показать сообщения:    

    Искупление через торрент
    Скачать бесплатно Искупление
    Искупление скачать торрент
    Искупление смотреть онлайн
    Cкачать фильм Искупление бесплатно
    Искупление скачать торрент в хорошем качестве
    Искупление смотреть онлайн бесплатно в хорошем качестве


    Вы не можете начинать темы
    Вы не можете отвечать на сообщения
    Вы не можете редактировать свои сообщения
    Вы не можете удалять свои сообщения
    Вы не можете голосовать в опросах
    Вы не можете прикреплять файлы к сообщениям
    Вы можете скачивать файлы