Доктор Стрэндж

Лицензия

Добыча

MVO

Дом дракона

1 сезон

Тор

Лицензия

Мэверик

Лицензия

Там, где раки поют

MVO

Властелин колец

1 сезон

Ultimate

pack

Рекомендуем

30

Repack

ВАЖНО

ВАЖНО

Ghostwire

RePack

jed

RePack

nioh2

RePack

RDR2

RePack

NEED FOR SPEED™ PAYBACK

RePack

скачать торрент

Кинопоиск HD

Острые козырьки 6 сезон

6 сезон

FAR CRY 6

RePack

скачать торрент

Лицензия

скачать торрент

MVO

1

1 сезон

скачать торрент

1 сезон

скачать торрент

Лицензия

  

Экипаж (Александр Митта) [1979 г., боевик, триллер, драма, DVDRip]

Экипаж через торрент piratbit.org

Качают: 1 [ 0 KB/s ]
Размер: 1.47 GB | Добавлен: 7 лет 5 мес. назад | Торрент скачан:152 раза
Смотреть онлайн | Скачать   

06-05-2015 12:54 Экипаж Скачать торрент  

Экипаж(1 и 2 серии)
Год выпуска: 1979
Страна: CCCР
Жанр: боевик, триллер, драма
Продолжительность: 144 мин. / 02:24

Режиссер: Александр Митта
Продюссер: Борис Криштул
Сценарий: Юлий Дунский, Валерий Фрид, Александр Митта

Бюджет: 19 мая 1980
Премьера в мире: 19 мая 1980

IMDB 7.30 (627)


В ролях: Георгий Жжёнов, Анатолий Васильев, Леонид Филатов, Александра Яковлева, Ирина Акулова, Екатерина Васильева, Юрий Горобец, Комаки Курихара, Александр Павлов, Галина Гладкова, Клара Румянова

Описание: Экипаж самолета, перевозящего грузы и пассажиров, попадает в ситуацию, по сравнению, с которой конец света может показаться детской забавой... В аэропорту, в котором приземлился самолет, землетрясение. Извергается огненная лава, земля уходит из под ног, все вокруг горит и рушится, людей охватывает ужас, возникает паника. После прибытия самолета происходит огромной силы новый толчок. Взлетная полоса повреждена. Но благодаря опыту и мужеству экипажа самолет удается поднять в воздух. Кажется, что пришло спасение, что самое страшное осталось на земле. Однако выясняется, что при взлете самолет получил массу повреждений, и одно из них слишком опасно, чтобы самолет смог благополучно приземлиться...

Качество: DVDRip
Формат: AVI
Видео кодек: XviD
Аудио кодек: MP3
Видео: 1410 Кбит/cек, 640x480 (1.33:1), 25 fps, XviD MPEG-4 ~1410 kbps avg
Аудио#1: 128 Кбит/сек, 48 kHz, MPEG Layer 3, MP3
скриншот   скриншот   скриншот   скриншот   скриншот   скриншот  

Общее
Полное имя : C:\Users\sony\Downloads\Экипаж\01_Ekipazh_DVDRip_1.46GB.avi
Формат : AVI
Формат/Информация : Audio Video Interleave
Размер файла : 875 Мбайт
Продолжительность : 1 ч. 19 м.
Общий поток : 1548 Кбит/сек
Программа кодирования : VirtualDubModRus 1.5.10.2 (build 2542/release)
Библиотека кодирования : VirtualDubMod build 2542/release

Видео
Идентификатор : 0
Формат : MPEG-4 Visual
Профиль формата : Advanced Simple@L5
Параметр BVOP формата : 2
Параметр QPel формата : Нет
Параметр GMC формата : Без точки перехода
Параметр матрицы формата : Default (MPEG)
Режим смешивания : Сжатый битовый поток
Идентификатор кодека : XVID
Идентификатор кодека/Подсказка : XviD
Продолжительность : 1 ч. 19 м.
Битрейт : 1410 Кбит/сек
Ширина : 640 пикселей
Высота : 480 пикселей
Соотношение сторон : 4:3
Частота кадров : 25,000 кадров/сек
Цветовое пространство : YUV
Субдискретизация насыщенности : 4:2:0
Битовая глубина : 8 бит
Тип развёртки : Прогрессивная
Метод сжатия : С потерями
Бит/(Пиксели*Кадры) : 0.184
Размер потока : 798 Мбайт (91%)
Библиотека кодирования : XviD 1.2.1 (UTC 2008-12-04)

Аудио
Идентификатор : 1
Формат : MPEG Audio
Версия формата : Version 1
Профиль формата : Layer 3
Режим : Joint stereo
Расширение режима : MS Stereo
Идентификатор кодека : 55
Идентификатор кодека/Подсказка : MP3
Продолжительность : 1 ч. 19 м.
Вид битрейта : Постоянный
Битрейт : 128 Кбит/сек
Каналы : 2 канала
Частота : 48,0 КГц
Метод сжатия : С потерями
Размер потока : 72,4 Мбайт (8%)
Выравнивание : Соединение по промежуткам
Продолжительность промежутка : 40 мс. (1,00 видеокадр)
Время предзагрузки промежутка : 504 мс.
Библиотека кодирования : LAME3.97
Настройки программы : -m j -V 4 -q 1 -b 128

Общее
Полное имя : C:\Users\sony\Downloads\Экипаж\02_Ekipazh_DVDRip_1.46GB.avi
Формат : AVI
Формат/Информация : Audio Video Interleave
Размер файла : 626 Мбайт
Продолжительность : 56 м.
Общий поток : 1548 Кбит/сек
Программа кодирования : VirtualDubModRus 1.5.10.2 (build 2542/release)
Библиотека кодирования : VirtualDubMod build 2542/release

Видео
Идентификатор : 0
Формат : MPEG-4 Visual
Профиль формата : Advanced Simple@L5
Параметр BVOP формата : 2
Параметр QPel формата : Нет
Параметр GMC формата : Без точки перехода
Параметр матрицы формата : Default (MPEG)
Режим смешивания : Сжатый битовый поток
Идентификатор кодека : XVID
Идентификатор кодека/Подсказка : XviD
Продолжительность : 56 м.
Битрейт : 1410 Кбит/сек
Ширина : 640 пикселей
Высота : 480 пикселей
Соотношение сторон : 4:3
Частота кадров : 25,000 кадров/сек
Цветовое пространство : YUV
Субдискретизация насыщенности : 4:2:0
Битовая глубина : 8 бит
Тип развёртки : Прогрессивная
Метод сжатия : С потерями
Бит/(Пиксели*Кадры) : 0.184
Размер потока : 570 Мбайт (91%)
Библиотека кодирования : XviD 1.2.1 (UTC 2008-12-04)

Аудио
Идентификатор : 1
Формат : MPEG Audio
Версия формата : Version 1
Профиль формата : Layer 3
Режим : Joint stereo
Расширение режима : MS Stereo
Идентификатор кодека : 55
Идентификатор кодека/Подсказка : MP3
Продолжительность : 56 м.
Вид битрейта : Постоянный
Битрейт : 128 Кбит/сек
Каналы : 2 канала
Частота : 48,0 КГц
Метод сжатия : С потерями
Размер потока : 51,7 Мбайт (8%)
Выравнивание : Соединение по промежуткам
Продолжительность промежутка : 40 мс. (1,00 видеокадр)
Время предзагрузки промежутка : 504 мс.
Библиотека кодирования : LAME3.97
Настройки программы : -m j -V 4 -q 1 -b 128


Экипаж скачать торрент





Скачать Экипаж через торрент https://pic.kartinco.top/images/11/uhep4.jpg Скачать, смотреть онлайн Экипаж бесплантно в хорошем качестве Описание: Экипаж самолета, перевозящего грузы и пассажиров, попадает в ситуацию, по сравнению, с которой конец света может показаться ... 9.9 10 17
Info! Золотая раздача, скачанное не засчитывается.
Торрент: Зарегистрирован [2015-05-06 12:54] · скачан: 152 раз
Статус: √ проверено
Размер: 1.47 GB
Как cкачать? Как скачать Экипаж через торрент | UTorrent

% Раздел Тема Автор DL S | L
Кино СССР [ 6.7 GB ] Экипаж | | 1080p bober100 Скачать
1 | 0



Последний раз редактировалось: olegus16 (2015-05-06 14:29), всего редактировалось 2 раз(а)

28-11-2019 20:33  


Отключить вcю реклaмy на сайте, в т.ч. и в плеере онлайн просмотра!

06-05-2015 12:57 Экипаж Скачать торрент  

Правила раздела Фильмы. Как правильно оформить раздачу фильма

Цитата:

Скриншоты должны быть представлены в виде превью (вы видите маленькую картинку с надписью "Увеличить", а при нажатии в новом окне открывается скриншот в натуральную величину

Рекомендую Flash Release - программа для автоматизации создания релизов



06-05-2015 12:58 Экипаж Скачать торрент  

Извиняюсь, не ту ссылку кинул



06-05-2015 13:02 Экипаж Скачать торрент  

olegus16, Не стоит извиняться. Ошибаются все!!!






Последний раз редактировалось: Ворон (2015-05-06 13:04), всего редактировалось 1 раз

06-05-2015 13:03 Экипаж Скачать торрент  

olegus16 писал(а):

Длительность: 144 мин. / 02:24

olegus16 писал(а):

MediaInfo
Общее
Полное имя : C:\Users\sony\Downloads\Экипаж\01_Ekipazh_DVDRip_1.46GB.avi
Формат : AVI
Формат/Информация : Audio Video Interleave
Размер файла : 875 Мбайт
Длительность : 1 ч. 19 м.

?



06-05-2015 14:14 Экипаж Скачать торрент  

Ворон писал(а):

olegus16 писал(а):

Длительность: 144 мин. / 02:24

olegus16 писал(а):

MediaInfo
Общее
Полное имя : C:\Users\sony\Downloads\Экипаж\01_Ekipazh_DVDRip_1.46GB.avi
Формат : AVI
Формат/Информация : Audio Video Interleave
Размер файла : 875 Мбайт
Длительность : 1 ч. 19 м.

?

там же 2 раздела "Общее" для 2х файлов, ниже для второго файла 56 минут



    Дорогой пользователь! Огромная просьба, поблагодарите релизера, оцените раздачу и оставьте свои комментарий, если Вы скачали Экипаж через торрент бесплатно!!
    Комментировать посты могут только пользователи прошедшие не сложную регистрацию
    Показать сообщения:    


    Экипаж через торрент
    Скачать бесплатно Экипаж
    Экипаж скачать торрент
    Экипаж смотреть онлайн
    Cкачать фильм Экипаж бесплатно
    Экипаж скачать торрент в хорошем качестве
    Экипаж смотреть онлайн бесплатно в хорошем качестве
    Вы не можете начинать темы
    Вы не можете отвечать на сообщения
    Вы не можете редактировать свои сообщения
    Вы не можете удалять свои сообщения
    Вы не можете голосовать в опросах
    Вы не можете прикреплять файлы к сообщениям
    Вы можете скачивать файлы