Присоединяйтесь к нам в Telegram!, здесь всегда актуальный адрес сайта, оперативная поддержка и многое другое!!

>

5.9

iTunes

7.4

iTunes

9.4

1 сезон

1

7.4

2 сезон

7.2

iTunes

7.3

1 сезон

13

6.1

iTunes

8.3

Пиратка

30

ULTIMATE

pack

9.9

Лицензия

ВАЖНО

ИГРА 18+

pack

7.3

RePack

MK11

7.7

RePack

jed

7.8

RePack

fifa19

8.5

RePack

RDR2

RePack

NEED FOR SPEED™ PAYBACK

5 сезон

9 сезон

Бесстыжие 9 сезон

Все сериалы

все сериалы на PB.wtf

RePack

FAR CRY 5

Anonymous, доброй ночи, мы катастрофически не успеваем собрать деньги на оплату серверов, помогите нам пожалуйста 5,10,15р., для нас важна любая помощь . В качестве благодарности мы отключим Вам всю рекламу на сайте (укажите свой ник в строку Ваше имя)!

×
  
Magnet ссылка

Меч мести / Sword of Vengeance (Джим Уидон) [2015 г., Боевик, исторический, HDRip, Любительский двухголосый] piratbit.org

Меч мести через торрент piratbit.org

Размер: 1.37 GB | Добавлен: 6 лет 6 мес. назад | Торрент скачан:441 раз
Смотреть онлайн Меч мести | Скачать    Ребята, помогите собрать деньги на оплату серверов!!!

09-05-2015 08:12 Меч мести Скачать торрент  

Меч мести / Sword of Vengeance
Год выпуска: 2015
Страна: Великобритания
Студия: Vertigo films
Жанр: Боевик, исторический
Продолжительность: 01:26:49
Перевод: Любительский двухголосый
Субтитры: Отсутствуют

Режиссер: Джим Уидон

В ролях: Стэнли Вебер, Эдвард Экрут, Misha Berich, Пит Чеффи, Джанни Джардинелли, Milica Jevtic, Vid Krkeljic, Дэйв Леджено, Nenad Pecinar, Карел Роден

Описание: После победы в битве при Гастингсе Вильгельм Завоеватель отправил свою армию на север Англии для совершения свирепого разорительного вторжения. Самый грозный полководец короля, граф Дюран, вырезал сто тысяч саксов и разорил их земли. Теперь Дюран правит севером вместе с сыновьями Артусом и Романом. Уцелевшие живут в постоянном страхе. Но загадочный чужестранец вскоре возглавит их восстание.

Качество: HDRip (рип с BDRip 720p)
Формат: AVI
Видео кодек: XviD
Аудио кодек: AC3
Видео: 720x304, 1861 kbps, 24,000 fps, 0.354 bpp
Аудио#1: Русский / 6 / 48 kHz / 384 kbps / 16 bit








Общее
Полное имя : D:\uTorrent\Me4.Mesty.2015.L2.HDRip.1400MB.avi
Формат : AVI
Формат/Информация : Audio Video Interleave
Размер файла : 1,37 Гбайт
Продолжительность : 1 ч. 26 м.
Общий поток : 2254 Кбит/сек
Программа кодирования : VirtualDubMod 1.5.10.3 | www.virtualdub-fr.org || (build 2550/release)
Библиотека кодирования : VirtualDubMod build 2550/release

Видео
Идентификатор : 0
Формат : MPEG-4 Visual
Профиль формата : Advanced Simple@L5
Параметр BVOP формата : 2
Параметр QPel формата : Нет
Параметр GMC формата : Без точки перехода
Параметр матрицы формата : Default (MPEG)
Идентификатор кодека : XVID
Идентификатор кодека/Подсказка : XviD
Продолжительность : 1 ч. 26 м.
Битрейт : 1861 Кбит/сек
Ширина : 720 пикселей
Высота : 304 пикселя
Соотношение сторон : 2,35:1
Частота кадров : 24,000 кадра/сек
Цветовое пространство : YUV
Субдискретизация насыщенности : 4:2:0
Битовая глубина : 8 бит
Тип развёртки : Прогрессивная
Метод сжатия : С потерями
Бит/(Пиксели*Кадры) : 0.354
Размер потока : 1,13 Гбайт (83%)
Библиотека кодирования : XviD 1.2.1 (UTC 2008-12-04)

Аудио
Идентификатор : 1
Формат : AC-3
Формат/Информация : Audio Coding 3
Расширение режима : CM (complete main)
Параметр Endianness формата : Big
Идентификатор кодека : 2000
Продолжительность : 1 ч. 26 м.
Вид битрейта : Постоянный
Битрейт : 384 Кбит/сек
Каналы : 6 каналов
Расположение каналов : Front: L C R, Side: L R, LFE
Частота : 48,0 КГц
Битовая глубина : 16 бит
Метод сжатия : С потерями
Размер потока : 238 Мбайт (17%)
Выравнивание : Разделение по промежуткам
Продолжительность промежутка : 42 мс. (1,00 видеокадр)
Время предзагрузки промежутка : 500 мс.

piratbit.org



Скачать Меч мести через торрент http://s017.radikal.ru/i436/1505/68/a5abd1afa413.jpg Скачать, смотреть онлайн Меч мести бесплантно в хорошем качестве Описание: После победы в битве при Гастингсе Вильгельм Завоеватель отправил свою армию на север Англии для совершения свирепого ... 10 10 20
Торрент: Зарегистрирован [2015-05-09 08:12] · скачан: 441 раз
Статус: T временная
Размер: 1.37 GB
Как cкачать? Как скачать Меч мести через торрент | UTorrent

% Раздел Тема Автор DL S | L
T Фильмы 2015 (Звук TS, Cam, VO, DVO) [ 1.37 GB ] Меч мести / Sword of Vengeance [2015 WEB-DLRip) VO [den904] + ENG GEKADOL Скачать
1 | 0

28-11-2019 20:33  

Отключить всю рекламу на сайте

    Дорогой пользователь! Огромная просьба, поблагодарите релизера, оцените раздачу и оставьте свои комментарий, если Вы скачали Меч мести через торрент бесплатно!
    Комментировать посты могут только пользователи прошедшие не сложную регистрацию
    Показать сообщения:    

    Меч мести через торрент
    Скачать бесплатно Меч мести
    Меч мести скачать торрент
    Меч мести смотреть онлайн
    Cкачать фильм Меч мести бесплатно
    Меч мести скачать торрент в хорошем качестве
    Меч мести смотреть онлайн бесплатно в хорошем качестве


    Вы не можете начинать темы
    Вы не можете отвечать на сообщения
    Вы не можете редактировать свои сообщения
    Вы не можете удалять свои сообщения
    Вы не можете голосовать в опросах
    Вы не можете прикреплять файлы к сообщениям
    Вы можете скачивать файлы