Присоединяйтесь к нам в Telegram!, здесь всегда актуальный адрес сайта, оперативная поддержка и многое другое!!

>

5.9

iTunes

7.4

iTunes

9.4

1 сезон

1

7.4

2 сезон

7.2

iTunes

7.3

1 сезон

13

6.1

iTunes

8.3

GOG

30

ULTIMATE

pack

9.9

Лицензия

ВАЖНО

ИГРА 18+

pack

7.3

RePack

MK11

7.7

RePack

jed

7.8

RePack

fifa19

8.5

RePack

RDR2

RePack

NEED FOR SPEED™ PAYBACK

5 сезон

9 сезон

Бесстыжие 9 сезон

Все сериалы

все сериалы на PB.wtf

RePack

FAR CRY 5

Anonymous, добрый день, мы катастрофически не успеваем собрать деньги на оплату серверов, помогите нам пожалуйста 5,10,15р., для нас важна любая помощь . В качестве благодарности мы отключим Вам всю рекламу на сайте (укажите свой ник в строку Ваше имя)!

×
  
Magnet ссылка

Коварный / Infidus (Джулио Де Санти ) [2015, драма, криминал, DVDRip, VO] piratbit.org

Коварный через торрент piratbit.org

Размер: 598 MB | Добавлен: 6 лет 6 мес. назад | Торрент скачан:99 раз
Смотреть онлайн Коварный | Скачать    Ребята, помогите собрать деньги на оплату серверов!!!

11-05-2015 12:50 Коварный Скачать торрент  


Коварный / Infidus
«Revenge isn't fair... and blood follows blood»

ИНФОРМАЦИЯ:
Год выпуска:2015
Страна: Италия
Жанр: драма, криминал
Продолжительность: 01:15:58
Перевод: Любительский (одноголосый)(МЕГАПЫХАРЬ)
Режиссер: Джулио Де Санти

В Ролях:

Бонини Мино (Barabba), Массимо Карателли (Massimo - Mungus60), Маурицио Дзаффино (Spaccio), Стефания Бонини (Barabba's Right-hand Man), Андреа Ди Спирито (Il Bove), Уолтер Монтано (Il Cane), Cristiano Mazzacane (Filmmaker), Simone Paternosto (Il Catena), Adrian Baigus (Il Pariolino), Domenico Deltreppo (Braga Brother 4), Маноло Ди Рокко (Manolo), Стефания Карателли (Massimo's Wife)

Описание:
В предместьях Рима жизнь идет своим отдельным ходом, в течении которого переплетаются две души: Массимо страдает от потери жены, жестоко убитой членами снафф-мафии, и пытается отомстить виновникам этой трагедии, а Барабба, вышедший из тюрьмы и узнавший о том, что его брат состоит в этой организации, понимает, что изменить все это можно только насилием и кровопролитием...

  • Мировая премьера:20 марта 2015

    ТЕХ.ДАННЫЕ:
    Качество: DVDRip
    Формат: AVI
    Видео кодек: xvid
    Аудио кодек: AC3
    Видео: xvid, 720x404 (16:9), 899 kbps, 25 fps, 0,118 bpp
    Аудио: AC3 / 2.0 / 48 kHz / 192 kbps / 16 bit



    Код:

    General
    Complete name                            : D:\Торенты\Infidus(2015)MEGAPYHAR.avi
    Format                                   : AVI
    Format/Info                              : Audio Video Interleave
    File size                                : 598 MiB
    Duration                                 : 1h 15mn
    Overall bit rate                         : 1 100 Kbps
    Writing application                      : VirtualDubMod 1.5.10.2 (build 2540/release)
    Writing library                          : VirtualDubMod build 2540/release

    Video
    ID                                       : 0
    Format                                   : xvid
    Codec ID                                 : xvid
    Duration                                 : 1h 15mn
    Bit rate                                 : 899 Kbps
    Width                                    : 720 pixels
    Height                                   : 404 pixels
    Display aspect ratio                     : 16:9
    Frame rate                               : 25.000 fps
    Bits/(Pixel*Frame)                       : 0.118
    Stream size                              : 465 MiB (78%)

    Audio
    ID                                       : 1
    Format                                   : AC-3
    Format/Info                              : Audio Coding 3
    Mode extension                           : CM (complete main)
    Codec ID                                 : 2000
    Duration                                 : 1h 15mn
    Bit rate mode                            : Constant
    Bit rate                                 : 192 Kbps
    Channel(s)                               : 2 channels
    Channel positions                        : Front: L R
    Sampling rate                            : 48.0 KHz
    Bit depth                                : 16 bits
    Compression mode                         : Lossy
    Stream size                              : 104 MiB (17%)
    Alignment                                : Split accross interleaves

    Скриншоты:


    © Оформление by Ворон
    Фильм был снят с участием бывших преступников и обездоленных людей с римских улиц.piratbit.org



  • Скачать Коварный через торрент https://pic1.kartinco.top/images/61/ordi9.jpg Скачать, смотреть онлайн Коварный бесплантно в хорошем качестве Описание: В предместьях Рима жизнь идет своим отдельным ходом, в течении которого переплетаются две души: Массимо страдает от потери жены, ... 9 10 6
    Торрент: Зарегистрирован [2015-05-11 12:50] · скачан: 99 раз
    Статус: √ проверено
    Размер: 598 MB
    Как cкачать? Как скачать Коварный через торрент | UTorrent

    28-11-2019 20:33  

    Отключить всю рекламу на сайте

      Дорогой пользователь! Огромная просьба, поблагодарите релизера, оцените раздачу и оставьте свои комментарий, если Вы скачали Коварный через торрент бесплатно!
      Комментировать посты могут только пользователи прошедшие не сложную регистрацию
      Показать сообщения:    

      Коварный через торрент
      Скачать бесплатно Коварный
      Коварный скачать торрент
      Коварный смотреть онлайн
      Cкачать фильм Коварный бесплатно
      Коварный скачать торрент в хорошем качестве
      Коварный смотреть онлайн бесплатно в хорошем качестве


      Вы не можете начинать темы
      Вы не можете отвечать на сообщения
      Вы не можете редактировать свои сообщения
      Вы не можете удалять свои сообщения
      Вы не можете голосовать в опросах
      Вы не можете прикреплять файлы к сообщениям
      Вы можете скачивать файлы