2 сезон

iTunes

1 сезон

1

iTunes

iTunes

iTunes

1 сезон

RePack

30

ИГРА 18+

pack

ВАЖНО

!!Акция!!

Alien_RageХит недели

RePack

MK11
pack

Забери бонус

RePack

jed

!!Акция!!

Alien_Rage

RePack

fifa19

RePack

Assassins Creed: Odyssey

RePack

NEED FOR SPEED™ PAYBACK

4 сезон

9 сезон

Бесстыжие 9 сезон

Все сериалы

все сериалы на PB.wtf

RePack

FAR CRY 5
  

Лифт на эшафот / Ascenseur pour l'échafaud / Elevator to the Gallows (Луи Маль / Louis Malle) [1958, триллер, драма, криминал, BDRip-AVC] MVO piratbit.org

Лифт на эшафот через торрент piratbit.org

Раздают: 1 [ 0 KB/s ]
Размер: 1.42 GB | Добавлен: 2 года 9 мес. назад | Торрент скачан:16 раз
Скачать  

12-05-2015 21:33 Лифт на эшафот Скачать торрент  

Лифт на эшафот
Ascenseur pour l'échafaud / Elevator to the Gallows

«Frantic for life and love - Frantic for excitement»


Страна: Франция
Жанр: триллер, драма, криминал

Год выпуска: 1958
Продолжительность: 01:31:07

Перевод: Профессиональный (многоголосый, закадровый) [Артхаус]
Субтитры: русские полные (2 вида)
Оригинальная аудиодорожка: нет

Режиссер: Луи Маль / Louis Malle

В ролях: Жанна Моро, Морис Роне, Жорж Пужули, Йори Бертен, Лино Вентура, Жан Валь, Эльга Андерсен, Сильвен Айзенштейн, Мишлин Бона, Жизель Гранпре, Жаклин Сто, Марсель Кювелье

Описание:
Жена с любовником планируют и осуществляют убийство мужа, но «идеального» преступления не получается. Он забывает на балконе веревку, по которой залез в окно офиса, возвращается за ней, но застревает в лифте.



Релиз:

Автор рипа: stalkerok | Моя группа

Сэмпл

Качество видео: BDRip-AVC [Ascenseur pour l'échafaud (1958) Blu-ray disc (custom) - HDCLUB / rutrаcker]
Формат видео: MKV
Видео кодек: AVC
Аудио кодек: AC3
Видео: 2043 Кбит/сек, 740x540 (1.370), 24 кадр/сек, AVC
Аудио: русский, 192 Кбит/сек, 48 КГц, 2.0, AC3
Навигация по главам: есть

---[Information] [15.01.2018 21:25:15] x264 [info]: frame I:663 Avg QP:16.68 size: 40203
---[Information] [15.01.2018 21:25:15] x264 [info]: frame P:25186 Avg QP:19.01 size: 20009
---[Information] [15.01.2018 21:25:15] x264 [info]: frame B:105382 Avg QP:21.78 size: 8218

General
Unique ID : 238462459036163742757598040746303184784 (0xB36632F4BE7331B2973BDB7006105F90)
Complete name : M:\$oldrerips\Elevator to the Gallows\Ascenseur.pour.l'echafaud.1958.BDRip-AVC.RUS.stalkerok.new-team.mkv
Format : Matroska
Format version : Version 4 / Version 2
File size : 1.42 GiB
Duration : 1 h 31 min
Overall bit rate : 2 237 kb/s
Movie name : Ascenseur pour l'echafaud (1958) (Rip by stalkerok)
Encoded date : UTC 2018-01-16 14:46:03
Writing application : mkvmerge v8.6.1 ('Flying') 64bit
Writing library : libebml v1.3.3 + libmatroska v1.4.4

Video
ID : 4
Format : AVC
Format/Info : Advanced Video Codec
Format profile : High@L4.1
Format settings, CABAC : Yes
Format settings, ReFrames : 15 frames
Codec ID : V_MPEG4/ISO/AVC
Duration : 1 h 31 min
Bit rate : 2 043 kb/s
Width : 740 pixels
Height : 540 pixels
Display aspect ratio : 1.370
Frame rate mode : Constant
Frame rate : 24.000 FPS
Color space : YUV
Chroma subsampling : 4:2:0
Bit depth : 8 bits
Scan type : Progressive
Bits/(Pixel*Frame) : 0.213
Stream size : 1.30 GiB (91%)
Title : Ascenseur pour l'echafaud (1958) (Rip by stalkerok)
Writing library : x264 core 152 r2851kMod ba24899
Encoding settings : cabac=1 / ref=15 / deblock=1:-3:-2 / analyse=0x3:0x133 / me=umh / subme=11 / psy=1 / fade_compensate=0.00 / psy_rd=1.00:0.00 / mixed_ref=1 / me_range=32 / chroma_me=1 / trellis=2 / 8x8dct=1 / cqm=0 / deadzone=21,11 / fast_pskip=0 / chroma_qp_offset=-2 / threads=12 / lookahead_threads=3 / sliced_threads=0 / nr=0 / decimate=1 / interlaced=0 / bluray_compat=0 / constrained_intra=0 / bframes=15 / b_pyramid=2 / b_adapt=2 / b_bias=0 / direct=3 / weightb=1 / open_gop=0 / weightp=2 / keyint=240 / keyint_min=23 / scenecut=40 / intra_refresh=0 / rc_lookahead=60 / rc=crf / mbtree=0 / crf=19.7000 / qcomp=0.65 / qpmin=0 / qpmax=69 / qpstep=4 / vbv_maxrate=50000 / vbv_bufsize=62500 / crf_max=0.0 / nal_hrd=none / filler=0 / ip_ratio=1.40 / pb_ratio=1.30 / aq=3:0.90
Default : Yes
Forced : No

Audio
ID : 1
Format : AC-3
Format/Info : Audio Coding 3
Mode extension : CM (complete main)
Format settings, Endianness : Big
Codec ID : A_AC3
Duration : 1 h 31 min
Bit rate mode : Constant
Bit rate : 192 kb/s
Channel(s) : 2 channels
Channel positions : Front: L R
Sampling rate : 48.0 kHz
Frame rate : 31.250 FPS (1536 spf)
Compression mode : Lossy
Stream size : 125 MiB (9%)
Language : Russian
Default : Yes
Forced : No

Text #1
ID : 2
Format : UTF-8
Codec ID : S_TEXT/UTF8
Codec ID/Info : UTF-8 Plain Text
Duration : 1 h 31 min
Bit rate : 60 b/s
Count of elements : 750
Stream size : 40.2 KiB (0%)
Language : Russian
Default : No
Forced : No

Text #2
ID : 3
Format : UTF-8
Codec ID : S_TEXT/UTF8
Codec ID/Info : UTF-8 Plain Text
Duration : 1 h 30 min
Bit rate : 65 b/s
Count of elements : 671
Stream size : 43.7 KiB (0%)
Language : Russian
Default : No
Forced : No

Menu
00:00:00.000 : en:Chapter 1
00:09:32.583 : en:Chapter 2
00:14:45.416 : en:Chapter 3
00:21:12.541 : en:Chapter 4
00:28:29.041 : en:Chapter 5
00:39:44.500 : en:Chapter 6
00:48:33.583 : en:Chapter 7
00:56:51.875 : en:Chapter 8
01:07:08.208 : en:Chapter 9
01:14:06.041 : en:Chapter 10
01:20:55.208 : en:Chapter 11
01:26:37.083 : en:Chapter 12
скриншот   скриншот   скриншот   скриншот   скриншот   скриншот   скриншот  
piratbit.org



Скачать Лифт на эшафот через торрент http://i6.imageban.ru/out/2017/09/18/2ff75c0c358795c5946784cc1680714d.png Скачать фильм Лифт на эшафот через торрент бесплантно в хорошем качестве Описание:Жена с любовником планируют и осуществляют убийство мужа, но «идеального» преступления не получается. Он забывает на балконе ... 10 10 4
Info! Золотая раздача, скачанное не засчитывается.
Торрент: Зарегистрирован [2018-01-23 14:02] · скачан: 16 раз
Статус: √ проверено
Размер: 1.42 GB
Как cкачать? Как скачать Лифт на эшафот через торрент | qTorrent

28-11-2019 20:33  

Отключить всю рекламу на сайте

23-01-2018 14:02 Лифт на эшафот Скачать торрент  

Замена на релиз с более полным кадром.piratbit.org



23-01-2018 14:34 Лифт на эшафот Скачать торрент  

Стопроцентный классический шедевр, здесь великолепно все. Описание дает очень поверхностное представление о потрясающе разыгранной истории человеческих взаимоотношений. Если вы любите кино, обязательно посмотрите фильм. Спасибо за раздачу.piratbit.org



    Дорогой пользователь! Огромная просьба, поблагодарите релизера, оцените раздачу и оставьте свои комментарий, если Вы скачали Лифт на эшафот через торрент бесплатно! Внесите свою лепту в развитие PiratBit!
    Комментировать посты могут только пользователи прошедшие не сложную регистрацию
    Показать сообщения:    

    Лифт на эшафот через торрент
    Скачать бесплатно Лифт на эшафот
    Лифт на эшафот скачать торрент
    Лифт на эшафот смотреть онлайн
    Cкачать фильм Лифт на эшафот бесплатно
    Лифт на эшафот скачать торрент в хорошем качестве
    Лифт на эшафот смотреть онлайн бесплатно в хорошем качестве


    Вы не можете начинать темы
    Вы не можете отвечать на сообщения
    Вы не можете редактировать свои сообщения
    Вы не можете удалять свои сообщения
    Вы не можете голосовать в опросах
    Вы не можете прикреплять файлы к сообщениям
    Вы можете скачивать файлы